<?xml version="1.0" standalone="no"?>
<!DOCTYPE svg PUBLIC "-//W3C//DTD SVG 1.1//EN" "http://www.w3.org/Graphics/SVG/1.1/DTD/svg11.dtd" >
<svg xmlns="http://www.w3.org/2000/svg" xmlns:xlink="http://www.w3.org/1999/xlink" version="1.1">
<metadata>
Created by FontForge 20170812 at Mon Jun 27 10:17:38 2022
 By www-data
</metadata>
<defs>
<font id="HeyVintageRegular" horiz-adv-x="0" >
  <font-face 
    font-family="Hey Vintage"
    font-weight="400"
    font-stretch="normal"
    units-per-em="1000"
    panose-1="0 0 0 0 0 0 0 0 0 0"
    ascent="800"
    descent="-200"
    x-height="361.212"
    cap-height="915.916"
    bbox="-384.033 -615.221 1541.26 1098.8"
    underline-thickness="50"
    underline-position="-100"
    unicode-range="U+000A-F000"
  />
<missing-glyph horiz-adv-x="527" 
d="M50 700h427v-700h-427v700zM78 680l185 -309l186 309h-371zM251 350l-180 300v-601zM264 329l-185 -308h370zM276 350l181 -303v605z" />
    <glyph glyph-name="tt.liga" unicode="tt" horiz-adv-x="672" 
d="M1282.3 648.762c-66.2207 25.9131 -135.526 36.7412 -206.19 42.1777c-202.816 15.6377 -402.497 -22.4365 -600.726 -62.6367c-1.67676 -21.165 -3.47656 -42.2881 -5.5918 -63.4268c-4.6416 -46.417 -7.64355 -93.0049 -8.97852 -139.641
c-2.62207 -91.7969 1.22363 -182.633 10.6074 -273.949c4.5127 -43.9121 7.85645 -91.7764 21.9512 -133.787c5.29785 -15.7871 11.9043 -34.1699 29.2832 -39.708c22.8477 -7.28516 40.7656 17.4424 52.7393 33.5771c53.8086 72.5225 78.7607 162.787 101.518 248.779
c4.7002 17.7686 44.5527 25.1016 38.9346 2.35547c-21.4434 -86.8301 -45.7598 -175.808 -95.8291 -251.123c-38.1387 -57.3652 -109.288 -110.378 -178.083 -67.7207c-34.6455 21.4805 -51.1748 56.2432 -61.5732 94.3818c-10.0723 36.958 -19.0498 74.3701 -25.042 112.23
c-16.0225 -48.7725 -36.1621 -96.0439 -64.6445 -138.888c-38.1387 -57.3652 -109.288 -110.378 -178.083 -67.7207c-34.6455 21.4805 -51.1748 56.2432 -61.5732 94.3818c-11.0664 40.5898 -20.8457 81.709 -26.7578 123.389
c-12.3154 86.8516 -16.1768 174.365 -12.876 261.986c1.64453 43.6074 4.7959 87.1455 8.79102 130.593c-35.7617 -2.70215 -71.5879 -4.28809 -107.473 -4.35742c-99.541 -0.186523 -207.563 14.2607 -281.127 87.8945c-16.46 16.4766 21.0166 41.2686 35.458 26.7949
c90.8145 -91.0127 236.212 -85.1914 356.166 -75.877c3.24219 35.1426 8.25684 72.4746 24.8721 101.576c10.4043 18.2227 29.9199 29.9883 50.2256 33.4385c14.1855 2.40918 39.9014 -0.0527344 45.8193 -17.1748c7.97949 -23.0615 4.53516 -44.5693 2.69824 -68.4697
c-0.94043 -12.2305 -1.93359 -24.4453 -2.99121 -36.6543c72.2129 9.7041 143.913 22.7461 215.453 36.8408c3.75488 18.623 9.28809 36.499 18.1484 52.0195c10.4043 18.2227 29.9199 29.9883 50.2256 33.4385c14.1855 2.40918 39.9014 -0.0527344 45.8193 -17.1748
c5.21289 -15.0605 5.52832 -29.4697 4.62598 -44.3066c113.646 23.0938 227.41 45.541 342.755 57.9902c124.099 13.4004 250.664 15.5098 374.105 -5.1748c61.0078 -10.2227 122.117 -21.5723 181.347 -39.6396c48.9219 -14.9219 99.7393 -37.4551 121.086 -87.4131
c17.5713 -41.1289 -69.0771 -77.0459 -80.0312 -39.0352c-16.3965 56.9062 -85.293 80.5605 -135.059 100.033zM349.844 557.635c1.3623 14.6602 2.50586 30.3838 4.28418 46.2295c-17.1494 -3.375 -34.2881 -6.69141 -51.4209 -9.90625
c-53.7227 -10.0781 -107.766 -19.4033 -162.049 -26.8906c-0.0751953 -0.726562 -0.133789 -1.45801 -0.203125 -2.18457c-4.6416 -46.417 -7.64844 -93.0049 -8.97852 -139.641c-2.62207 -91.7969 1.22363 -182.633 10.6074 -273.949
c4.5127 -43.9121 7.85645 -91.7764 21.9512 -133.787c5.29785 -15.7871 11.9043 -34.1699 29.2832 -39.708c22.8477 -7.28516 40.7656 17.4424 52.7393 33.5771c51.1963 68.9971 76.2607 154.049 98.1738 236.206c-4.60938 58.4551 -5.7041 117.124 -3.49316 175.841
c1.6875 44.8145 4.95605 89.5645 9.10547 134.213z" />
    <glyph glyph-name=".notdef" horiz-adv-x="527" 
d="M50 700h427v-700h-427v700zM78 680l185 -309l186 309h-371zM251 350l-180 300v-601zM264 329l-185 -308h370zM276 350l181 -303v605z" />
    <glyph glyph-name=".null" 
 />
    <glyph glyph-name=".null" 
 />
    <glyph glyph-name="LF" unicode="&#xa;" 
 />
    <glyph glyph-name="controlCR" unicode="&#xd;" 
 />
    <glyph glyph-name="space" unicode=" " horiz-adv-x="338" 
 />
    <glyph glyph-name="exclam" unicode="!" horiz-adv-x="234" 
d="M184.065 52.0234c3.69043 -53.541 -106.444 -91.4521 -113.377 -30.2256c-14.6074 128.985 -19.5371 258.291 -20.5303 388.051c-0.49707 65.248 0.12207 130.363 2.92578 195.559c2.4248 56.2861 0.0371094 118.421 13.3994 173.266
c0.123047 2.36621 0.806641 4.72656 1.9707 6.66504l0.527344 0.881836c5.25 8.74316 18.7412 17.6299 29.5723 14.4258c49.8887 -14.7725 46.8281 -107.932 48.5742 -149.2c2.78223 -65.8252 5.7041 -131.672 9.13281 -197.465
c6.99121 -134.117 18.5596 -267.989 27.8047 -401.957zM172.649 -62.7627c8.4707 -14.709 0.138672 -36.4502 4.74805 -52.8301c6.15234 -21.8389 -9.65137 -38.9883 -29.4336 -46.4062c-19.5791 -7.33789 -41.1133 -3.96289 -46.9082 17.8438
c-6.55273 24.6582 -6.98535 58.4922 12.6738 77.4463c14.3076 13.7949 45.792 26.7412 58.9199 3.94629z" />
    <glyph glyph-name="quotedbl" unicode="&#x22;" horiz-adv-x="271" 
d="M56.998 709.682c8.37402 37.4551 90.8955 51.9609 80.3691 4.86621c-9.35742 -41.8721 -22.7148 -86.1416 -25.2305 -129.065c-0.891602 -15.1836 -21.998 -31.1094 -36.8457 -22.4043c-20.9785 12.3047 -22.4902 37.7051 -24.3652 60.2275
c-2.36621 28.4346 -0.144531 58.5615 6.07227 86.376zM137.421 699.288c6.15234 40.2637 93.8906 51.4482 82.002 4.96191c-10.3291 -40.3818 -11.6855 -83.418 -26.3838 -122.485c-5.84863 -15.542 -30.7793 -28.3066 -42.502 -11.4775
c-25.502 36.6055 -19.4824 87.3643 -13.1162 129.001z" />
    <glyph glyph-name="quotedbl" unicode="&#x201d;" horiz-adv-x="271" 
d="M56.998 709.682c8.37402 37.4551 90.8955 51.9609 80.3691 4.86621c-9.35742 -41.8721 -22.7148 -86.1416 -25.2305 -129.065c-0.891602 -15.1836 -21.998 -31.1094 -36.8457 -22.4043c-20.9785 12.3047 -22.4902 37.7051 -24.3652 60.2275
c-2.36621 28.4346 -0.144531 58.5615 6.07227 86.376zM137.421 699.288c6.15234 40.2637 93.8906 51.4482 82.002 4.96191c-10.3291 -40.3818 -11.6855 -83.418 -26.3838 -122.485c-5.84863 -15.542 -30.7793 -28.3066 -42.502 -11.4775
c-25.502 36.6055 -19.4824 87.3643 -13.1162 129.001z" />
    <glyph glyph-name="quotedbl" unicode="&#x201c;" horiz-adv-x="271" 
d="M56.998 709.682c8.37402 37.4551 90.8955 51.9609 80.3691 4.86621c-9.35742 -41.8721 -22.7148 -86.1416 -25.2305 -129.065c-0.891602 -15.1836 -21.998 -31.1094 -36.8457 -22.4043c-20.9785 12.3047 -22.4902 37.7051 -24.3652 60.2275
c-2.36621 28.4346 -0.144531 58.5615 6.07227 86.376zM137.421 699.288c6.15234 40.2637 93.8906 51.4482 82.002 4.96191c-10.3291 -40.3818 -11.6855 -83.418 -26.3838 -122.485c-5.84863 -15.542 -30.7793 -28.3066 -42.502 -11.4775
c-25.502 36.6055 -19.4824 87.3643 -13.1162 129.001z" />
    <glyph glyph-name="numbersign" unicode="#" horiz-adv-x="903" 
d="M840.21 415.144c32.9424 -10.377 -7.46875 -50.9639 -27.5928 -50.5264c-53.8135 1.19141 -107.023 6.50586 -160.885 5.71582c-9.71973 -43.2393 -19.0449 -86.5801 -27.7559 -130.086c26.1436 0.608398 52.3076 0.923828 78.4512 0.486328
c27.7881 -0.458984 59.2666 2.24316 86.125 -4.89746c44.5205 -11.835 4.6084 -53.6748 -22.5225 -57.5205c-30.1807 -4.2832 -63.4326 0.416992 -93.9336 1.13281c-20.0068 0.475586 -40.0029 0.785156 -60.0098 0.956055
c-12.3535 -62.9248 -24.3008 -125.951 -34.1602 -189.304c-6.37109 -40.9639 -12.7266 -81.9062 -18.585 -122.944c-5.27148 -36.8887 -4.86523 -85.2178 -29.5293 -114.592c-9.22363 -10.9863 -30.3574 -17.9512 -42.4277 -7.39746
c-25.5713 22.3457 -17.2715 81.3135 -16.0801 112.536c1.47949 38.8271 4.1123 77.7402 8.58789 116.344c7.92578 68.3516 18.1855 136.431 30.0049 204.216c-30.4961 -0.918945 -60.9707 -2.30176 -91.4131 -4.22949
c-3.81836 -0.240234 -7.63672 -0.539062 -11.4551 -0.795898c-9.66113 -53.0342 -18.0781 -106.255 -26.2119 -159.625c-12.7588 -83.7061 -18.8789 -168.993 -40.167 -250.846c-6.9541 -26.7363 -63.6416 -48.959 -70.6162 -11.6113
c-15.6328 83.7324 -5.58105 171.391 2.36035 255.897c4.91895 52.3721 12.2949 104.68 21.0488 156.704c-74.2793 -7.4668 -148.366 -17.3369 -221.882 -29.5566c-29.1611 -4.84375 -27.4043 27.0029 -2.76758 33.1025c77.1211 19.0879 154.926 34.3037 233.371 45.7334
c2.8252 15.3604 5.70898 30.7041 8.69434 46c5.63477 28.8721 11.6699 57.8408 18.1113 86.8037c-8.95117 -0.662109 -17.8867 -1.36719 -26.8428 -2.01367c-27.5693 -1.99219 -55.0742 -4.44922 -82.5205 -7.76074c-26.3564 -3.17285 -53.7119 -10.0781 -80.2236 -9.61914
c-39.2178 0.683594 -35.2119 41.2734 -4.96191 55.3789c53.541 24.9678 120.349 25.3311 178.435 28.0391c10.4785 0.491211 20.957 0.960938 31.4307 1.43066c29.0859 118.096 66.0439 235.117 114.826 345.148c10.6064 23.9209 43.0566 37.748 67.6611 36.6162
c21.1172 -0.97168 44.6221 -17.2881 37.0537 -41.583c-25.2031 -80.9395 -53.6484 -160.816 -77.3936 -242.226c-8.86523 -30.3994 -17.2129 -60.9375 -25.1279 -91.5771c9.10645 0.640625 18.207 1.22852 27.3076 1.98145c23.0029 1.90137 46.0166 3.8457 69.0459 5.56543
c20.0977 94.3398 42.7373 188.156 69.9434 280.466c7.89941 26.7949 35.8477 45.333 63.166 46.8174c23.5049 1.28223 48.5479 -13.9766 42.2725 -40.4404c-22.2656 -93.8965 -45.4287 -187.488 -67.2725 -281.4c1.74609 0.0263672 3.4873 0.0908203 5.22852 0.112305
c56.6064 0.742188 114.901 0.480469 169.212 -16.6318zM520.086 236.018c7.94141 42.833 16.1436 85.6875 24.7852 128.483c-23.7344 -1.89062 -47.4531 -4.01074 -71.1611 -6.10449c-9.31934 -0.822266 -18.6338 -1.53809 -27.9531 -2.32324
c-7.08691 -29.6201 -13.832 -59.3252 -20.2998 -89.0996c-2.82031 -12.9785 -5.49609 -25.9727 -8.10742 -38.9775c2.99121 0.288086 5.97168 0.640625 8.96289 0.917969c31.2168 2.89453 62.4814 5.25 93.7734 7.10352z" />
    <glyph glyph-name="dollar" unicode="$" horiz-adv-x="520" 
d="M463.065 79.1494c19.4033 -58.0967 -1.31543 -116.471 -39.1758 -162.23c-32.2158 -38.9453 -78.9795 -66.1143 -127.581 -74.3711c-0.683594 -28.2793 -1.39355 -56.5537 -1.98145 -84.833c-0.432617 -20.877 -44.126 -34.2451 -43.4961 -11.5947
c0.875977 31.4141 1.86914 62.834 2.85742 94.248c-35.2119 2.45117 -69.457 15.8936 -97.8965 43.1689c-40.6758 39.0146 -52.6182 93.9824 -48.292 148.533c3.7168 46.8867 11.7598 101.598 55.0732 127.8c17.4697 10.5693 35.2275 -10.5645 16.7432 -22.3887
c-25.6143 -16.3906 -27.6328 -62.1025 -30.3516 -89.6611c-3.35352 -33.999 -0.97168 -69.7021 14.5537 -100.652c18.1211 -36.125 52.7881 -61.8887 91.3008 -69.585c2.88965 87.6953 6.23828 175.38 10.0352 263.043c-80.3789 61.7344 -166.611 131.891 -201.225 230.401
c-19.1201 54.4062 -20.5996 111.611 11.6641 161.44c26.0205 40.1787 69.9756 71.876 114.353 88.7793c31.8574 12.1338 67.3145 17.4854 101.527 14.9961c3.04395 48.4941 6.19531 96.9775 9.52246 145.45c1.1748 17.1328 37.4443 28.4766 36.2852 9.67676
c-3.31641 -53.6533 -6.39844 -107.323 -9.36816 -160.998c48.1094 -12.3047 89.6924 -42.5498 109.202 -94.4727c7.59961 -20.2363 -32.7715 -39.6182 -40.6543 -19.8252c-13.6084 34.1758 -39.6182 58.7754 -70.835 71.9883
c-6.21094 -115.756 -11.6475 -231.55 -16.2725 -347.375c12.0596 -10.3027 24.2842 -20.4287 36.6484 -30.4053c44.8408 -36.1895 98.3184 -74.1143 117.363 -131.133zM271.021 274.682c5.23438 107.798 11.209 215.559 17.8213 323.282
c-20.8135 2.75098 -42.582 1.01562 -63.6777 -5.65527c-51.5381 -16.2998 -85.7725 -65.4727 -80.6396 -119.628c5.19629 -54.8604 42.2773 -108.652 78.1621 -148.805c15.3711 -17.1924 31.5801 -33.4873 48.334 -49.1943zM313.596 -119.548
c49.0439 15.4131 85.8477 84.1064 73.9004 134.566c-9.96094 42.0645 -47.624 71.1719 -83.2627 96.7012c-2.72363 -78.3281 -5.12695 -156.667 -7.12988 -235.017c5.52246 0.880859 11.0342 2.03418 16.4922 3.74902z" />
    <glyph glyph-name="percent" unicode="%" horiz-adv-x="680" 
d="M600.109 757.952c25.5928 -4.45996 37.7031 -28.8115 25.2539 -51.7773c-85.1855 -157.126 -175.894 -310.326 -254.328 -471.18c-78.8838 -161.783 -146.135 -329.398 -228.538 -489.344c-12.7695 -24.7812 -81.7939 -39.3779 -71.2783 3.37988
c42.3955 172.368 119.933 338.76 196.92 498.129c78.0391 161.543 159.93 325.436 259.049 475.223c15.5254 23.4619 43.751 40.6484 72.9219 35.5693zM157.463 394.861c-70.8027 4.24023 -108.898 93.832 -107.419 155.716
c0.480469 20.0332 20.0166 38.3525 41.1338 46.5557c18.8428 30.79 57.6973 51.0205 95.1631 51.8213c72.9707 1.56445 90.8193 -70.7549 86.1943 -129.695c-4.93457 -62.9141 -42.8916 -128.729 -115.072 -124.397zM148.693 598.318
c-4.54004 -1.69824 -8.42285 -3.89453 -11.7451 -6.47461c3.31641 -4.04785 5.63477 -9.41504 6.51074 -16.374c4.28906 -34.1758 9.91309 -70.584 30.4746 -99.4775c2.8252 -3.96777 16.7598 -17.6611 16.1348 -17.7676c11.5361 1.94922 15.3652 29.7959 16.7646 38.2285
c4.89258 29.4648 8.68457 71.8115 -14.7939 95.0176c-11.707 11.5684 -28.2686 12.4873 -43.3457 6.84766zM461.049 126.593c58.1182 -5.29785 107.345 -61.4668 99.9375 -120.269c-8.41699 -66.7119 -81.2598 -125.338 -148.842 -114.646
c-77.4736 12.252 -91.5361 110.778 -72.0264 172.582c6.80957 21.5605 26.458 37.4277 48.377 42.3623c18.2383 16.7754 49.3906 22.0791 72.5537 19.9697zM478.877 -21.0264c18.5801 20.0918 22.3613 52.8154 11.8613 77.6504
c-6.1582 14.5752 -16.6953 24.3008 -31.6279 29.7266c-7.08691 2.57422 -14.7939 3.81836 -22.3242 3.62109c2.78809 -5.49023 3.80273 -12.1133 2.22754 -19.7344c-4.71094 -22.7998 -4.74316 -139.507 39.8633 -91.2637z" />
    <glyph glyph-name="ampersand" unicode="&#x26;" horiz-adv-x="822" 
d="M768.254 239.341c16.8818 -18.7783 -23.6387 -45.2256 -38.208 -28.8721c-23.248 26.0947 -52.0986 45.8506 -83.6895 57.9531c0.512695 -122.475 -57.376 -242.946 -138.978 -332.239c-75.7002 -82.8408 -192.717 -149.435 -308.04 -120.835
c-90.0508 22.335 -151.491 101.352 -149.28 194.394c1.74609 73.2812 28.4873 143.026 73.0938 200.83c20.3643 26.3838 45.0068 49.5684 71.9033 69.415c-21.79 11.1621 -40.9795 27.4727 -55.6289 50.0107c-49.8887 76.7471 -15.7559 177.8 40.1465 240.986
c52.2598 59.0693 133.418 99.9424 213.316 89.5811c75.4229 -9.78418 133.515 -72.5488 124.083 -150.295c-2.68066 -22.1055 -49.9678 -30.8486 -46.5654 -2.81445c7.17285 59.1221 -44.4668 111.072 -102.569 111.895
c-56.041 0.790039 -91.6377 -36.1523 -115.842 -82.2061c-23.8311 -45.3428 -44.9375 -105.544 -13.1758 -152.645c21.1924 -31.4248 52.4678 -39.2646 84.9873 -36.6104c23.2695 8.75879 46.2881 14.9971 72.4365 11.2422
c47.6289 -6.8418 25.1064 -61.457 -5.59277 -75.1025c-25.2354 -11.2207 -53.7227 -19.04 -82.627 -22.0527c-4.58789 -2.42969 -8.92969 -4.76855 -12.8281 -6.71289c-18.4629 -9.21289 -35.5957 -19.8574 -51.9336 -32.499
c-25.7637 -19.9316 -47.6504 -44.5264 -63.7314 -72.71c-23.5586 -41.2949 -34.165 -88.8389 -35.084 -132.628c-1.59668 -75.9512 50.2031 -140.697 126.438 -152.105c101.282 -15.1572 181.992 55.0049 238.354 130.77c60.2383 80.9658 94.5957 177.201 97.6934 278.11
c0.0478516 1.67676 0.512695 3.30078 1.15332 4.88184c-27.8525 4.87109 -56.8633 3.94727 -85.3672 -3.62109c-30.3359 -8.04883 -28.3281 27.9805 -2.91113 34.8164c88.8916 23.916 186.436 -1.96582 248.447 -70.9365z" />
    <glyph glyph-name="quotesingle" unicode="'" horiz-adv-x="214" 
d="M123.296 762.021c20.6904 1.12695 46.5654 -13.1221 39.2168 -37.5186c-12.417 -41.1885 -16.9248 -83.7334 -28.167 -125.044c-6.4248 -23.6064 -60.7617 -53.4238 -74.0713 -20.0068c-17.5498 44.0557 -10.2969 95.2793 4.42773 139.138
c8.30469 24.749 32.4561 42.0107 58.5938 43.4316z" />
    <glyph glyph-name="quotesingle" unicode="&#x2019;" horiz-adv-x="214" 
d="M123.296 762.021c20.6904 1.12695 46.5654 -13.1221 39.2168 -37.5186c-12.417 -41.1885 -16.9248 -83.7334 -28.167 -125.044c-6.4248 -23.6064 -60.7617 -53.4238 -74.0713 -20.0068c-17.5498 44.0557 -10.2969 95.2793 4.42773 139.138
c8.30469 24.749 32.4561 42.0107 58.5938 43.4316z" />
    <glyph glyph-name="quotesingle" unicode="&#x2018;" horiz-adv-x="214" 
d="M123.296 762.021c20.6904 1.12695 46.5654 -13.1221 39.2168 -37.5186c-12.417 -41.1885 -16.9248 -83.7334 -28.167 -125.044c-6.4248 -23.6064 -60.7617 -53.4238 -74.0713 -20.0068c-17.5498 44.0557 -10.2969 95.2793 4.42773 139.138
c8.30469 24.749 32.4561 42.0107 58.5938 43.4316z" />
    <glyph glyph-name="parenleft" unicode="(" horiz-adv-x="501" 
d="M426.22 -206.651c39.543 -0.838867 25.9531 -44.5732 -4.16895 -50.7041c-104.481 -21.2881 -208.065 22.9492 -271.754 107.371c-57.9688 76.8379 -82.4238 171.418 -93.874 265.72c-11.6162 95.6592 -7.44531 193.294 12.252 287.606
c19.75 94.5957 54.6787 187.151 105.069 269.789c23.7295 38.9238 52.623 79.8398 90.1582 106.698c20.6367 14.7725 67.3848 47.5811 86.9805 15.75c8.93555 -14.5166 -21.5332 -31.9434 -32.9785 -21.9189c-0.689453 -0.689453 -1.55957 -1.50098 -2.69727 -2.51562
c-2.45117 -2.32812 -4.50781 -4.95605 -6.16309 -7.88281c-2.1416 -2.91113 -4.1123 -6.0459 -6.17871 -9.02637c-5.69336 -8.20312 -11.1787 -16.2891 -16.1514 -24.9678c-10.6709 -18.6338 -20.7012 -37.4658 -30.0264 -56.8047
c-18.7354 -38.8545 -36.4346 -77.6123 -49.9043 -118.667c-48.1367 -146.738 -63.8652 -301.835 -36.0771 -454.416c23.4678 -128.83 100.957 -302.747 255.514 -306.031z" />
    <glyph glyph-name="parenright" unicode=")" horiz-adv-x="419" 
d="M270.375 648.557c79.3262 -143.907 108.9 -317.002 96.3018 -479.928c-6.68652 -86.3818 -23.665 -169.586 -55.0049 -250.499c-30.373 -78.4189 -82.4727 -149.959 -168.112 -170.905c-39.5645 -9.67773 -42.7637 31.0986 -12.8818 47.3877
c74.8135 40.7822 90.6113 155.935 105.176 230.802c17.582 90.4092 22.0576 182.404 14.127 274.196c-8.11816 93.9287 -30.9551 185.091 -61.4404 274.068c-14.2441 41.583 -30.3037 83.4014 -48.3984 123.463c-18.9385 41.9199 -37.1562 80.4639 -82.2275 98.0352
c-22.9336 8.93555 9.61328 35.4102 26.5488 30.0479c85.4688 -27.0566 144.271 -101.123 185.912 -176.668z" />
    <glyph glyph-name="asterisk" unicode="*" horiz-adv-x="297" 
d="M230.373 621.437c10.041 1.45312 17.8691 -6.00684 16.4805 -15.7588c-1.57031 -11.0977 -15.0723 -16.8711 -24.6318 -18.2539c-8.03223 -1.16406 -16.0918 -1.82129 -24.1621 -2.19531c10.0029 -10.4463 20.0859 -20.8232 30.0195 -31.3389
c15.4297 -16.332 -20.6201 -40.002 -34.084 -25.7529c-6.17969 6.54199 -12.4707 12.9775 -18.6816 19.499c0.331055 -13.5977 0.694336 -27.1953 1.12695 -40.793c0.619141 -19.5957 -40.2646 -32.3496 -40.7236 -10.8525
c-0.458984 21.3574 -0.608398 42.7041 -0.629883 64.0566c-11.5205 -12.6787 -22.5654 -25.7852 -32.7178 -39.6982c-13.0049 -17.8223 -49.0928 -8.46484 -31.8311 14.5322c13.6348 18.1689 28.7969 34.9121 44.5518 51.1162
c-14.7246 -0.149414 -29.4062 -1.03613 -43.9971 -3.66895c-28.3379 -5.11621 -27.0078 27.8574 -2.69629 32.2471c12.7324 2.29688 25.4863 3.43457 38.251 3.96875c-11.8301 12.0273 -23.5957 24.1191 -35.5215 36.0557c-15.8193 15.835 20.1992 39.6553 34.085 25.7529
c10.3721 -10.3828 20.5996 -20.9092 30.8965 -31.3613c0.288086 12.0645 0.582031 24.1289 0.977539 36.1992c0.566406 17.3096 37.001 29.4014 36.8408 9.81641c-0.138672 -16.8662 -0.143555 -33.7275 -0.0683594 -50.5938
c11.6211 11.7822 22.9707 23.8203 33.7002 36.4463c12.9785 15.2744 46.2568 7.13477 29.2998 -13.374c-14.1533 -17.1172 -29.4551 -33.1768 -45.0127 -48.9912c12.8555 0.288086 25.7002 1.08398 38.5283 2.94238z" />
    <glyph glyph-name="plus" unicode="+" horiz-adv-x="363" 
d="M296.358 280.037c29.9727 0.635742 14.2871 -34.9434 -8.47559 -35.376c-17.9668 -0.34668 -35.9385 -0.725586 -53.873 -1.40918c-0.015625 -0.326172 -0.0371094 -0.652344 -0.0527344 -0.983398c-2.16797 -53.3652 4.47559 -109.85 -7.69043 -162.184
c-6.94824 -29.9082 -64.8369 -56.292 -82.915 -22.3945c-24.7764 46.4434 -24.5732 107.179 -26.1973 158.595c-0.160156 5.02539 -0.235352 10.0723 -0.31543 15.1191c-15.3545 -2.92188 -30.624 -6.48926 -45.7656 -10.9697
c-28.6533 -8.48633 -26.6182 25.9883 -2.7666 33.1025c16.0967 4.7959 32.333 8.63574 48.665 11.7979c0.923828 39.4414 4.65723 78.9629 12.6367 117.374c5.57617 26.832 35.0732 44.5098 59.9932 48.7451c19.0938 3.24707 54.4814 -3.48242 53.5146 -30.085
c-1.49512 -41.1084 -4.83887 -82.126 -7.28516 -123.196c20.1562 0.913086 40.3496 1.43164 60.5273 1.86426z" />
    <glyph glyph-name="comma" unicode="," horiz-adv-x="253" 
d="M114.655 85.8145c19.9795 39.9062 107.835 42.6621 84.1807 -13.8965c-20.6045 -49.2637 -42.8008 -99.4141 -72.5547 -143.951c-10.8154 -16.1875 -28.707 -27.6484 -48.7559 -26.3828c-15.8887 0.999023 -31.291 12.124 -26.7031 29.9619
c13.7578 53.4775 39.2119 105.091 63.833 154.269z" />
    <glyph glyph-name="hyphen" unicode="-" horiz-adv-x="497" 
d="M407.589 310.581c21.7373 0.678711 43.6465 -11.9424 38.3428 -36.6807c-5.44238 -25.4004 -33.7432 -39.7676 -57.2852 -42.4648c-50.3477 -5.76758 -101.197 -8.72656 -151.77 -12.0322c-49.6162 -3.24219 -101.315 -10.751 -150.995 -8.80664
c-57.2002 2.23242 -39.1221 66.2793 6.12012 74.4346c52.126 9.39941 106.238 10.6816 159.032 14.9648c52.0674 4.21875 104.349 8.9668 156.555 10.585z" />
    <glyph glyph-name="period" unicode="." horiz-adv-x="173" 
d="M119.287 22.8789c6.98047 -17.3682 0.951172 -40.7715 -1.81543 -58.6846c-4.89746 -31.7246 -71.46 -44.7451 -67.2832 -4.06934c2.12012 20.626 8.08594 43.9336 22.3301 59.625c9.25 10.1846 39.1045 22.2012 46.7686 3.12891z" />
    <glyph glyph-name="slash" unicode="/" horiz-adv-x="621" 
d="M540.701 796.582c27.2061 -4.7373 37.3564 -29.1836 25.8955 -53.1045c-38.625 -80.5928 -82.6436 -158.755 -122.304 -238.898c-38.9766 -78.7656 -76.6133 -158.188 -112.894 -238.23c-37.0703 -81.7832 -73.5527 -163.754 -109.111 -246.205
c-35.5371 -82.3867 -68.8848 -166.841 -118.634 -241.702c-11.7227 -17.6455 -56.4727 -31.4033 -53.5137 2.53711c7.66895 87.9678 43.4092 173.383 75.7852 255.075c32.2744 81.4365 65.6865 162.59 101.651 242.472c36.0605 80.0908 73.4883 159.567 112.252 238.387
c40.1523 81.6396 79.5303 164.982 126.091 243.192c14.6074 24.541 45.9521 41.498 74.7812 36.4775z" />
    <glyph glyph-name="zero" unicode="0" horiz-adv-x="568" 
d="M99.2637 -26.2041c-37.8711 61.0771 -46.9912 140.873 -48.9512 211.308c-2.34473 84.0693 8.37402 168.854 40.1621 246.995c4.37402 10.7461 15.3652 19.4834 28.333 25.0537c-2.37109 74.1729 32.9316 154.771 94.9805 193.026
c57.0186 35.1533 124.259 3.83984 173.212 -31.9805c53.1191 -38.8594 84.4316 -100.326 104.257 -161.639c48.4512 -149.847 32.29 -315.491 -50.2197 -450.426c-38.2832 -62.6045 -94.3291 -119.74 -171.866 -125.135
c-70.6055 -4.91309 -133.445 33.9893 -169.907 92.7969zM224.982 617.354c-42.2988 -33.4385 -65.9072 -96.4141 -63.3008 -154.783c15.2588 -3.41797 25.668 -14.1738 21.4971 -34.8643c-1.98633 -9.84277 -3.96289 -19.6592 -5.89062 -29.46
c14.3457 -29.2354 38.7852 -52.2539 75.0547 -61.915c24.3379 -6.48926 1.18066 -34.8965 -16.8496 -30.875c-28.3379 6.31836 -50.9932 18.7783 -68.6494 35.2705c-6.19043 -38.5977 -10.3135 -77.3877 -9.68359 -117.149
c0.977539 -61.8945 6.71387 -129.466 35.5596 -185.33c17.1328 -33.1719 55.6611 -76.0049 97.917 -69.874c36.8457 5.3457 63.3203 65.4883 77.6494 94.1094c53.8301 107.516 57.4248 227.593 33.9521 343.6c-9.66113 47.7412 -24.375 94.4414 -47.9922 137.29
c-23.2754 42.2246 -74.2588 117.466 -129.264 73.9814z" />
    <glyph glyph-name="one" unicode="1" horiz-adv-x="475" 
d="M89.6328 516.067c-8.41211 -18.4043 -48.8574 -18.6016 -37.7002 6.22754c18.1904 40.4834 44.5527 76.1973 73.0459 109.994c27.2061 32.2686 58.8125 63.0527 101.982 70.749c94.5107 16.8555 109.887 -105.71 114.918 -173.506
c7.42871 -100.161 1.1377 -202.154 -3.28418 -302.369c-4.63086 -104.957 -8.19824 -210.085 -17.6035 -314.748c-0.304688 -3.40234 -1.1377 -6.67578 -2.3877 -9.80566c31.0029 3.42871 62.3105 3.83496 94.126 -1.05176
c28.4873 -4.37402 1.60156 -39.1104 -19.5215 -35.7617c-89.96 14.2764 -177.015 -19.2051 -263.669 -38.3623c-29.0166 -6.41406 -27.3662 27.543 -2.7666 33.1025c26.4053 5.95996 52.7305 12.9668 79.0977 19.6484c-1.91211 3.66895 -2.96973 7.91504 -2.7832 12.8447
c6.55859 171.732 24.584 343.754 43.0684 514.547c4.45996 41.209 9.28809 82.3701 13.2666 123.633c1.98633 20.6152 3.25195 41.1982 4.81152 61.8457c1.41504 18.7305 8.21387 48.8311 -5.04199 64.8105c-32.6426 39.3457 -84.4375 -19.9639 -104.62 -43.917
c-25.4971 -30.2607 -48.4355 -61.7715 -64.9385 -97.8809z" />
    <glyph glyph-name="two" unicode="2" horiz-adv-x="561" 
d="M127.997 -143.637c-27.7559 -3.67969 -67.6484 0.0361328 -76.3701 32.5879c-6.76172 25.2031 8.49121 48.1152 27.9268 62.7598c33.999 25.6201 77.3818 27.4736 119.408 21.9941c28.3545 28.8291 50.9297 63.1758 70.958 98.0938
c53.8994 93.9873 80.0693 200.729 91.1836 307.881c5.5332 53.3486 7.64258 108.23 0.939453 161.521c-6.19043 49.2051 -21.7324 121.306 -79.2842 130.914c-112.188 18.7246 -194.714 -162.541 -111.008 -236.517c16.6309 -14.6982 -19.2588 -38.6143 -34.085 -25.7539
c-117.391 101.822 16.6572 309.199 152.591 299.484c69.0566 -4.93457 120.088 -60.9219 144.896 -121.642c27.5312 -67.4004 28.2627 -142.973 23.3115 -214.502c-10.0029 -144.452 -57.7705 -294.769 -153.515 -405.819
c-3.88281 -4.50781 -7.95215 -8.98828 -12.1016 -13.4424c66.0977 -16.8877 131.955 -36.75 200.787 -35.3564c32.2373 0.657227 15.4297 -37.7861 -9.11621 -38.085c-63.0957 -0.763672 -123.403 13.7471 -183.968 29.9189
c-13.8057 3.68555 -27.6221 7.38184 -41.4756 10.9072c-37.8232 -32.5684 -82.6426 -58.5303 -131.078 -64.9443zM122.82 -63.3496c-9.35156 -2.83105 -33.4805 -20.3818 -14.8945 -24.2109c6.27539 -1.29199 22.7627 11.0078 28.7764 14.2393
c7.63184 4.10742 15.0283 8.67871 22.2275 13.5498c-12.3643 0.657227 -24.6211 -0.101562 -36.1094 -3.57812z" />
    <glyph glyph-name="three" unicode="3" horiz-adv-x="614" 
d="M167.896 424.44c-76.6348 -19.8408 -130.384 54.3945 -115.376 125.165c30.3574 143.267 220.163 220.44 346.237 155.283c68.7949 -35.5586 92.6465 -108.749 60.5645 -178.334c-15.2109 -33.0059 -38.8389 -61.1836 -67.0059 -84.5332
c47.624 -20.4336 89.2451 -54.4385 120.131 -98.4844c103.605 -147.758 46.3203 -393.161 -119.5 -469.679c-72.6885 -33.5352 -170.259 -42.166 -239.011 5.42578c-78.0605 54.0381 -69.9102 151.854 -54.4648 233.734c4.77441 25.3262 56.9326 36.2266 54.1982 3.2793
c-3.80762 -45.8877 -8.38477 -97.9072 10.4473 -141.328c17.6943 -40.7871 53.6699 -59.8857 97.0957 -63.1387c78.2266 -5.85352 136.933 44.9424 165.858 113.865c32.3281 77.0244 34.7471 168.352 -6.03027 242.711c-33.2949 60.709 -100.039 107.189 -170.831 104.097
c-23.3604 -1.02539 -45.6318 10.9756 -44.4941 36.3232c1.18555 26.5547 28.6641 45.3652 51.7686 52.1592c52.5586 15.4512 113.978 51.5283 130.219 107.665c19.627 67.8389 -38.1709 122.331 -103.312 122.945c-65.3389 0.619141 -129.3 -33.4922 -165.713 -87.6641
c-19.0137 -28.2793 -31.9922 -64.8154 -22.459 -98.8418c8.03223 -28.6689 37.209 -57.333 69.0879 -49.6846c27.1475 6.51074 25.2832 -25.0908 2.58984 -30.9658z" />
    <glyph glyph-name="four" unicode="4" horiz-adv-x="619" 
d="M97.0195 148.381c-29.9941 2.97461 -57.7197 23.8516 -42.9102 56.0996c29 63.1387 112.434 92.833 177.276 105.49c14.7939 35.6982 27.1689 72.7578 36.7451 110.111c22.3408 87.1406 26.165 179.162 20.5146 268.588c-1.19629 18.9062 37.46 32.4561 40.168 10.7031
c12.5723 -101.08 1.27148 -201.064 -19.333 -300.296c-5.37305 -25.8711 -11.4297 -53.4834 -19.6064 -80.6094c50.6523 5.51172 101.753 7.88281 151.406 18.5801c-5.4209 121.476 -6.35547 243.688 5.20215 364.582c4.13867 43.3027 106.976 72.5117 108.007 17.7578
c2.73438 -145.146 -2.29688 -290.234 2.51562 -435.424c2.3877 -72.042 5.7793 -144.137 9.59277 -216.12c1.98145 -37.4336 3.72266 -75.1025 1.74609 -112.584c-1.82129 -34.5605 -3.48242 -69.4629 -24.7383 -97.9238
c-6.61719 -8.85547 -24.2256 -13.8867 -33.1875 -5.78516c-23.8789 21.582 -26.1162 65.9961 -31.2383 96.0381c-5.875 34.4531 -11.2695 68.8262 -15.5371 103.52c-8.73242 71.0488 -14.6123 142.15 -18.6768 213.61c-0.720703 12.668 -1.39355 25.3467 -2.04004 38.0361
c-54.3047 -11.7764 -110.218 -13.9287 -165.564 -20.4072c-16.332 -41.0488 -39.5908 -78.4131 -75.7422 -103.37c-30.5439 -21.085 -67.1016 -34.3193 -104.6 -30.5967zM144.396 245.481c-8.05371 -4.63574 -58.9941 -36.9473 -47.5488 -52.7402
c11.4453 -15.7871 46.9023 -0.4375 58.166 6.46289c26.7842 16.4121 45.0869 44.2803 59.2617 72.7197c-24.3857 -5.74707 -48.1846 -13.9668 -69.8789 -26.4424z" />
    <glyph glyph-name="five" unicode="5" horiz-adv-x="643" 
d="M195.25 621.179c-56.9492 -6.59082 -121.582 -3.22266 -144.104 47.8457c-8.17676 18.5215 29.8232 36.8086 38.0264 18.5488c19.6914 -43.8477 85.3291 -36.3867 125.363 -30.9551c0.427734 0.737305 0.828125 1.49609 1.26074 2.2334
c12.6846 21.71 64.9385 38.042 74.1035 12.0273c27.916 6.3125 55.7686 13.0205 83.9893 17.7422c52.1475 8.71582 227.496 39.3242 218.379 -55.7627c-1.94922 -20.3271 -45.3809 -28.4023 -42.7529 -2.58496c6.27539 61.6328 -184.599 24.21 -262.003 7.71777
c-8.87109 -42.7686 -24.4287 -84.0586 -40.6699 -124.525c-8.43262 -21.0215 -17.2344 -41.8984 -24.4551 -63.3848c-1.91699 -5.71484 -4.48633 -12.5615 -6.85254 -19.6436c10.6494 2.55273 21.2939 4.98828 32.0879 6.90527
c27.6543 4.9082 54.876 6.28613 82.835 2.68652c46.833 -6.0293 92.2295 -26.8105 128.114 -57.3545c73.8096 -62.8291 91.8613 -166.483 80.7422 -258.473c-11.0771 -91.6318 -66.8506 -177.042 -151.294 -217.119c-77.7773 -36.915 -171.914 -27.5469 -225.312 44.7891
c-58.3584 79.0596 -33.6836 180.192 -8.10645 266.2c5.71973 19.2373 49.6367 27.2646 42.752 2.58496c-15.8252 -56.7354 -32.6162 -116.13 -19.8838 -175.221c12.124 -56.2861 49.333 -88.5928 105.267 -96.3154c89.8105 -12.4014 139.736 72.8643 150.392 150.535
c11.541 84.1338 -9.61914 188.818 -90.0723 232.298c-33.7969 18.2598 -69.4043 24.9307 -107.094 16.7002c-36.3438 -7.93066 -126.934 -43.1748 -136.696 18.1592c-3.52539 22.1211 6.79883 47.4736 14.0566 68.0088c8.65234 24.5039 18.9121 48.4199 29.3906 72.1865
c16.8877 38.2881 33.46 76.8965 52.5371 114.17z" />
    <glyph glyph-name="six" unicode="6" horiz-adv-x="531" 
d="M115.077 -33.5156c-41.6582 61.4141 -55.9697 143.179 -62.1914 215.723c-12.2041 142.241 12.7373 296.942 105.256 410.359c41.9248 51.3994 105.197 97.5918 174.051 98.9375c51.9814 1.01465 128.605 -19.7393 134.133 -81.1426
c1.65527 -18.4365 -36.0449 -31.4678 -39.0625 -10.4092c-10.2012 71.2783 -110.165 49.2852 -149.559 21.0488c-41.5615 -29.7959 -68.0518 -78.541 -86.3174 -125.268c-38.5547 -98.6279 -44.2002 -206.987 -30.7949 -311.058
c39.041 35.8369 90.0352 58.5566 143.197 62.0869c69.2754 4.60352 141.189 -26.1006 165.586 -95.1514c43.5645 -123.308 -40.8682 -282.244 -177.961 -287.302c-73.1904 -2.70215 -136.928 44.0723 -176.337 102.175zM282.123 208.702
c-46.4648 -6.67578 -85.9502 -32.2148 -114.363 -68.5859c16.5615 -84.2617 53.0127 -175.52 135.758 -208.958c113.209 -45.749 152.341 147.816 111.81 220.419c-26.2441 47.0146 -82.1191 64.4629 -133.204 57.125z" />
    <glyph glyph-name="seven" unicode="7" horiz-adv-x="471" 
d="M61.0908 630.958c-25.6309 5.16406 -1.33398 35.8799 17.5781 32.2158c49.8027 -9.66699 106.607 18.623 154.808 30.4902c41.2305 10.1523 87.877 20.0117 130.293 12.5557c87.0332 -15.2959 52.4727 -146.006 38.9658 -202.255
c-16.2949 -67.8496 -37.4287 -134.476 -57.5371 -201.348c18.6289 0.678711 37.29 1.67188 55.9883 3.64844c29.791 3.14551 13.7578 -33.0381 -8.4707 -35.3828c-19.2852 -2.04004 -38.5654 -2.76074 -57.8301 -3.09766
c-4.81738 -16.498 -9.55469 -33.0176 -14.0303 -49.6006c-25.9883 -96.2783 -42.4482 -193.476 -59.9023 -291.506c-9.06348 -50.9082 -115.009 -72.5166 -108.712 -6.57422c11.3115 118.469 41.6953 232.644 79.4756 344.607
c-11.9688 -1.10059 -23.9316 -2.64941 -35.8896 -4.88672c-27.5742 -5.16992 -26.1963 26.6934 -2.62207 31.3936c16.6846 3.32715 33.3584 5.47949 50.0381 6.95898c17.9072 51.0156 37.0908 101.619 56.5205 151.988c16.6475 43.1592 31.1748 87.3438 48.7197 130.123
c7.93066 19.3389 21.0049 40.291 21.2344 61.6328c0.326172 30.1484 -28.1406 31.9326 -51.6348 31.6387c-44.3389 -0.549805 -87.5352 -12.9355 -129.951 -24.6533c-41.2363 -11.3916 -83.9199 -26.6338 -127.041 -17.9492z" />
    <glyph glyph-name="eight" unicode="8" horiz-adv-x="491" 
d="M147.912 303.926c-57.2744 55.9443 -102.441 119.857 -97.5488 204.487c4.11816 71.1875 40.377 138.646 107.735 168.074c56.8096 24.8242 129.257 18.7998 174.803 -25.6729c47.2656 -46.1494 55.7734 -113.16 57.7012 -176.144
c2.19531 -71.7002 -8.21387 -143.165 -29.6943 -211.527c36.4727 -39.3242 65.8145 -84.2725 76.8486 -138.289c13.4482 -65.8574 -11.6963 -140.74 -50.0645 -194.383c-34.6133 -48.3984 -95.626 -74.6328 -154.845 -66.707
c-59.4805 7.96289 -106.49 51.0898 -129.023 105.353c-26.7891 64.5166 -20.6953 135.837 -4.91309 202.276c10.959 46.1338 25.7686 91.5576 49.001 132.532zM348.191 0.462891c15.6592 68.8965 -6.62793 125.99 -55.8643 174.943
c-34.8428 34.6406 -78.2744 68.1807 -118.715 104.492c-27.457 -56.4844 -41.8027 -123.121 -45.0869 -182.03c-3.96777 -71.0859 18.8428 -157.211 89.9121 -188.705c32.1514 -14.2441 72.501 -17.1445 96.3047 12.6836c18.0518 22.6133 27.1367 50.8389 33.4492 78.6162z
M184.534 626.959c-56.249 -36.4453 -23.9814 -128.504 -0.0761719 -174.077c33.1826 -63.2617 89.9229 -108.312 141.841 -155.588c0.326172 -0.298828 0.641602 -0.597656 0.967773 -0.896484c17.7314 69.4355 24.4873 142.263 15.2744 213.364
c-4.97754 38.416 -16.5615 81.2275 -46.6514 108.07c-28.8828 25.7637 -78.2158 30.5967 -111.355 9.12695z" />
    <glyph glyph-name="nine" unicode="9" horiz-adv-x="612" 
d="M416.281 627.145c24.9414 7.82422 42.1338 -7.18848 59.3096 -23.3018c48.3447 -45.3594 65.8408 -118.085 77.8203 -180.903c13.7363 -72.042 10.4092 -147.822 -0.40625 -219.998c-10.0244 -66.8828 -25.5928 -138.732 -57.4189 -198.992
c-33.3691 -63.1758 -96.8066 -110.725 -170.088 -112.732c-60.8477 -1.67188 -132.067 37.6094 -154.242 95.9844c-11.3115 29.7803 37.7539 55.3516 59.6777 36.5576c27.1631 -23.2803 52.6816 -45.9678 90.377 -46.7959c26.6074 -0.582031 48.083 7.66406 63.1602 29.7695
c18.7139 27.4307 28.1729 62.1406 37.5195 93.5234c12.2246 41.0488 21.502 82.9902 27.5 125.396c10.5801 74.8242 11.4189 150.909 3.99023 226.075c-3.26855 33.0752 -7.08203 66.2734 -15.2744 98.5264c-2.17871 8.58789 -4.5498 17.4805 -8.50684 25.4805
c-1.81055 4.90234 -4.47559 9.27148 -7.9043 13.165c-5.50098 -2.89453 -15.4668 -33.1982 -17.7207 -38.2822c-27.334 -61.7666 -50.54 -126.188 -84.4277 -184.808c-30.71 -53.1191 -68.7471 -114.474 -132.014 -130.187
c-73.377 -18.2227 -129.396 40.8789 -136.532 109.897c-7.47754 72.3467 24.0811 143.267 66.9834 199.649c39.832 52.3447 93.3096 102.628 160.005 115.627c42.3789 8.26172 92.5605 -9.06348 119.676 -43.9492c5.26074 4.46484 11.3281 8.04297 18.5166 10.2969z
M282.484 388.545c33.6953 56.2646 56.5215 117.556 83.5938 177.058c2.04004 4.48633 4.09082 9.11133 6.24805 13.7363c-1.77832 1.13184 -3.35352 2.60059 -4.54492 4.59277c-18.5801 31.1104 -51.6445 34.0156 -82.6152 20.2578
c-28.2578 -12.5508 -49.001 -41.3965 -67.3945 -64.9922c-43.8047 -56.2061 -77.6973 -126.33 -53.3809 -198.377c4.02148 -11.9209 11.9951 -34.7158 25.1387 -39.8799c10.0938 -3.96777 21.5869 4.36914 29.8174 10.1318c26.7412 18.7246 46.6992 50.0215 63.1377 77.4727
z" />
    <glyph glyph-name="colon" unicode=":" horiz-adv-x="157" 
d="M78.4316 353.34c-9.02051 -2.69727 -24.4395 -0.0585938 -24.9258 11.8037c-0.549805 13.6455 -0.549805 27.0186 0.0380859 40.6641c0.491211 11.3916 9.62891 19.7344 20.3477 22.5654c9.11133 2.40332 21.7373 0.0908203 23.1523 -10.9697
c1.69824 -13.2988 2.74512 -26.373 3.29004 -39.7783c0.49707 -12.3643 -11.2314 -21.0967 -21.9023 -24.2852zM106.839 124.808c1.06836 -5.98145 0.419922 -11.8408 -0.0498047 -17.833c-1.1748 -15.0928 -12.0752 -24.9248 -26.3135 -29.1758
c-11.2422 -3.35938 -28.7812 0.0263672 -29.9346 14.1846c-1.1748 14.4307 -1.42578 33.9404 9.8916 44.7822c8.15527 7.80859 22.3994 15.3066 33.8604 9.35742c6.2168 -3.22559 8.62012 -6.29102 10.4092 -12.9727c0.737305 -2.75098 1.63477 -5.53906 2.13672 -8.34277z
" />
    <glyph glyph-name="semicolon" unicode=";" horiz-adv-x="211" 
d="M121.614 344.795c-11.376 -3.40234 -32.1191 -0.126953 -32.3008 15.3027c-0.0800781 7.19922 -0.421875 14.4258 0.170898 21.6035c0.678711 8.21387 0.321289 16.8604 5.1543 23.8838c9.21289 13.3945 27.2324 21.7207 41.8662 11.5195
c6.31836 -4.40039 7.47168 -13.2344 9.39453 -20.2686c1.84277 -6.74512 2.86816 -13.6777 4.10156 -20.5625c2.78223 -15.4775 -16.3115 -27.8682 -28.3867 -31.4785zM74.8291 103.346c6.02441 40.6221 93.4375 56.5811 85.8164 5.18652
c-7.51465 -50.6631 -23.7188 -97.6621 -43.1377 -144.832c-7.2959 -17.7207 -57.0508 -38.1973 -64.7842 -10.9697c-7.01758 24.7119 1.04688 46.0322 7.11426 70.4131c6.57422 26.4209 11.002 53.29 14.9912 80.2021z" />
    <glyph glyph-name="less" unicode="&#x3c;" horiz-adv-x="420" 
d="M353.39 252.372c46.2783 -27.542 -14.8193 -84.332 -52.3975 -74.0508c-41.2041 11.2744 -81.9648 22.2178 -123.543 32.3281c-41.9355 10.1953 -84.5068 23.4561 -117.967 51.8799c-25.1816 21.3896 5.67188 53.8457 24.5459 63.8975
c38.4961 20.5029 77.126 40.9531 116.557 59.6035c34.8115 16.46 75.8877 42.8857 115.078 44.5098c17.1328 0.71582 22.0947 -13.5547 12.7861 -26.207c-21.9502 -29.8389 -65.6221 -48.7451 -96.2725 -68.7842c-16.7383 -10.9375 -33.5244 -21.79 -50.2734 -32.6963
c18.8906 -7.43945 38.5977 -12.6787 59.0156 -17.293c36.7285 -8.2998 79.7588 -13.7207 112.471 -33.1875z" />
    <glyph glyph-name="equal" unicode="=" horiz-adv-x="485" 
d="M419.765 338.695c41.0869 -20.2842 -9.25488 -62.5352 -35.3184 -64.709c-30.2979 -2.53711 -61.002 0.998047 -91.418 0.34082c-28.7979 -0.619141 -57.6172 -1.29785 -86.4043 -2.41895c-30.4795 -1.19629 -60.9482 -3.09766 -91.46 -3.42383
c-20.8984 -0.21875 -50.8125 -4.08008 -62.5303 16.9785c-3.99512 7.17773 0.416016 15.3496 4.81152 20.9629c19.0879 24.3535 55.8223 26.9121 84.3096 31.2861c31.0088 4.75879 62.0283 8.0166 93.2881 10.5859c57.125 4.69434 131.399 16.7168 184.722 -9.60254z
M388.163 242.988c18.0674 0.667969 36.123 -9.9834 31.7812 -30.4062c-4.27246 -20.1133 -28.0977 -34.3789 -47.4902 -35.2012c-55.918 -2.37109 -111.852 -4.92383 -167.743 -7.80762c-26.918 -1.38867 -53.7656 -3.17773 -80.6035 -5.71973
c-21.1494 -1.99707 -46.8008 -9.60254 -66.5459 0.951172c-10.6279 5.67676 -8.71582 16.2891 -2.45605 24.5029c30.918 40.5742 108.113 39.2822 154.312 43.0312c59.5391 4.83887 119.052 8.44922 178.746 10.6494z" />
    <glyph glyph-name="greater" unicode="&#x3e;" horiz-adv-x="376" 
d="M310.631 318.518c35.9434 -16.8232 0.891602 -61.4248 -25.6738 -65.9326c-62.7383 -10.6602 -114.127 -34.1006 -165.308 -71.2773c-15.6855 -11.3975 -45.8018 -20.7549 -61.9893 -4.38574c-16.7275 16.9141 -2.90039 38.459 11.4717 51.127
c32.1943 28.3652 70.4238 50.2891 111.051 66.1084c-9.38379 5.28711 -18.7305 10.6436 -28.002 16.1338c-15.5732 9.22363 -31.168 18.292 -46.0264 28.6426c-16.167 11.2588 -30.7744 26.6084 -47.6621 36.4355c-23.2646 13.5332 10.457 40.3867 28.7168 32.5039
c20.2949 -8.75879 43.5967 -13.0264 64.7031 -20.1025c17.3574 -5.82129 34.0479 -13.0469 50.8984 -20.1768c36.3867 -15.3975 72.0312 -32.3223 107.82 -49.0762z" />
    <glyph glyph-name="question" unicode="?" horiz-adv-x="485" 
d="M328.254 721.64c92.1289 -25.9883 114.791 -119.544 104.066 -204.639c-11.8564 -94.0996 -50.8232 -180.936 -88.6035 -266.949c-18.335 -41.7324 -37.3271 -83.3848 -52.6553 -126.341c-15.8193 -44.334 -25.1924 -89.0361 -34.1328 -135.095
c-4.99902 -25.7803 -33.9678 -42.833 -57.665 -46.8604c-17.876 -3.0332 -52.9805 3.33789 -51.4424 28.9199c5.16992 86.0137 39.4043 169.677 74.21 247.534c30.2822 67.748 63.5449 134.043 88.9775 203.868c22.1855 60.9014 49.9307 142.418 22.7783 205.797
c-31.6494 73.8633 -120.904 70.2207 -176.993 26.9707c-31.0674 -23.9482 -51.9502 -58.6475 -60.5645 -96.7695c-5.61816 -24.8564 -13.9609 -96.6309 23.2373 -103.99c25.7002 -5.08398 1.28711 -35.6436 -17.5762 -32.2041
c-45.29 8.24609 -53.3916 60.3564 -51.6826 99.0557c2.07715 46.8545 19.627 92.1553 50.1123 127.891c53.2158 62.3701 147.95 95.3711 227.934 72.8115zM225.664 -114.081c12.8984 -17.165 11.6787 -43.5264 14.5146 -64.377
c4.88672 -35.8955 -71.3633 -60.0947 -75.1074 -20.0225c-2.41895 25.9023 -1.01953 55.2285 15.1953 76.4844c7.53613 9.875 35.3086 21.3418 45.3975 7.91504z" />
    <glyph glyph-name="at" unicode="@" horiz-adv-x="903" 
d="M769.551 619.893c69.8945 -70.498 88.7021 -173.229 82.0635 -269.214c-6.74023 -97.3516 -41.7383 -189.31 -115.665 -255.23c-77.7988 -69.3711 -196.092 -75.417 -262.953 12.2412c-30.416 39.8799 -42.3896 89.3838 -38.0635 139.102
c0.250977 2.86816 0.603516 5.70898 0.97168 8.54492c-12.375 -17.0156 -25.8174 -33.1289 -42.2832 -45.7705c-31.1797 -23.9424 -80.9824 -36.0127 -115.046 -11.2051c-29.6143 21.5664 -33.9668 62.3965 -29.3574 96.1396
c9.68262 70.9092 66.4121 139.741 130.39 170.071c39.1318 18.5488 118.538 37.2949 144.569 -11.5781c13.3311 -2.34473 23.1211 -11.4082 21.1982 -30.4375c-8.43359 -83.5244 -36.8145 -194.287 31.9746 -262.633c22.3408 -22.1914 56.2178 -39.9814 86.7939 -24.6104
c32.3809 16.2783 54.0537 53.9365 68.5596 85.6768c31.7295 69.4297 34.5869 154.327 20.3271 228.377c-14.751 76.6084 -64.9912 137.579 -136.088 168.967c-144.024 63.5869 -310.978 -14.0625 -403.891 -128.537c-94.8418 -116.856 -143.021 -292.333 -54.7588 -426.136
c41.5088 -62.9307 111.158 -106.025 183.515 -124.264c87.1025 -21.9561 178.222 -5.55469 261.843 23.0029c11.3916 3.8877 28.0068 -0.390625 29.6465 -14.0469c1.79492 -14.917 -14.3076 -24.6367 -26.0518 -28.8936
c-194.159 -70.3916 -463.917 -20.1719 -536.808 198.587c-60.2227 180.737 18.1963 369.149 162.536 483.977c147.507 117.348 391.057 164.646 536.577 17.8701zM471.671 434.726c1.67676 1.90137 3.63477 3.69141 5.79199 5.37402
c-24.8027 8.95605 -63.9717 -25.2246 -79.7324 -38.7578c-26.9492 -23.1367 -50.9609 -60.5332 -53.9414 -96.7061c-0.833008 -10.0781 -0.320312 -21.9082 3.78711 -31.2861c0.166016 -0.384766 0.390625 -0.838867 0.636719 -1.31934
c1.4209 1.81543 2.93262 3.55664 4.28906 5.42578c7.88281 10.4043 15.2852 21.2031 22.9062 31.7939c30.875 42.9287 61.2002 85.7939 96.2627 125.476z" />
    <glyph glyph-name="A" unicode="A" horiz-adv-x="1010" 
d="M-58.791 230.017c48.2324 64.6611 129.578 105.309 206.608 123.521c77.7676 18.3994 156.464 15.3389 230.963 -4.66211c25.0801 77.4199 49.9844 154.898 76.9229 231.661c28.4766 81.1367 55.5811 167.711 96.9512 243.368
c15.7549 28.8242 38.6084 60.5801 71.7637 70.1504c33.1445 9.56543 59.7207 -7.62109 82.2266 -30.5811c58.6689 -59.8486 69.5371 -157.345 84.0586 -235.939c16.9414 -91.6748 29.3369 -184.246 41.1719 -276.711c6.59082 -51.4639 13.0801 -102.917 19.8896 -154.306
c58.46 26.7197 116.487 54.3955 174.44 82.002c25.6572 12.2197 39.8848 -17.0215 14.2598 -29.2363c-61.1143 -29.1338 -122.399 -58.332 -184.182 -86.4297c16.8818 -124.259 36.2637 -248.058 64.4951 -370.56c6.32324 -27.457 -27.9004 -52.041 -48.916 -60.1221
c-18.1318 -6.96973 -62.1396 -11.0078 -69.5361 15.8086c-14.0459 50.9082 -25.79 102.275 -35.7344 153.975c-25.5605 64.1162 -56.7559 125.652 -95.8135 181.726c-76.2021 -29.9297 -153.617 -56.5908 -232.837 -77.9434
c-47.832 -12.8877 -96.6572 -24.2207 -145.974 -31.2383c-19.7715 -47.0146 -41.375 -93.0684 -65.7822 -137.424c-36.7549 -66.8027 -80.2979 -144.116 -145.37 -187.077c-64.2012 -42.3848 -151.63 -56.2227 -213.903 -2.85742
c-32.5732 27.9111 35.8906 70.7227 64.7686 48.9375c77.2812 -58.3105 164.801 28.3379 208.574 86.7764c42.3682 56.5586 74.7549 120.69 102.729 186.211c-21.165 -1.65039 -42.3896 -2.36035 -63.6357 -1.88477c-78.0078 1.74609 -164.816 18.2334 -227.565 67.8438
c-62.9355 49.7549 -54.8281 135.667 -10.5742 194.992zM554.357 75.8535c32.4297 10.9805 64.5547 22.75 96.4551 35.0977c-31.0352 40.3125 -66.5996 77.3457 -107.713 109.845c-41.5615 32.8516 -87.9248 59.6035 -136.942 78.499
c-30.9766 -96.3799 -62.0176 -194.64 -99.7666 -289.566c85.3936 12.8984 170.045 39.7412 247.967 66.125zM741.947 56.2725c-2.33398 17.876 -4.49121 35.7783 -6.53711 53.6963c-7.27441 -3.0498 -14.5537 -6.07227 -21.8496 -9.06836
c9.97168 -14.5322 19.4199 -29.4277 28.3867 -44.6279zM502.984 592.668c-29.8174 -84.833 -57.1211 -170.515 -84.792 -256.074c63.8916 -22.7412 123.857 -57.9102 176.4 -102.618c37.209 -31.665 70.252 -67.3037 99.4072 -105.886
c12.6045 5.11621 25.1816 10.2969 37.7217 15.5732c-8.10742 77.4785 -13.8916 155.256 -18.8643 232.916c-5.92285 92.54 -11.7715 185.139 -18.9658 277.588c-3.43457 44.1045 -5.37891 87.8721 -13.1924 131.506c-6.53711 36.5254 -34.0049 106.906 -73.9004 54.1553
c-25.3848 -33.5557 -39.3994 -76.8643 -54.8125 -115.59c-17.3145 -43.4844 -33.4814 -87.418 -49.002 -131.57zM121.641 312.097c-68.1914 -21.5928 -150.983 -69.1953 -169.035 -144.062c-20.8447 -86.4404 60.8154 -130.881 131.688 -150.396
c56.2598 -15.4883 114.629 -18.4629 173.18 -13.6348c6.57422 16.2891 12.9512 32.5947 19.1895 48.8252c32.8887 85.5918 61.9375 172.534 90.3184 259.706c-79.3428 23.083 -163.914 25.3477 -245.34 -0.4375z" />
    <glyph glyph-name="A" unicode="&#xc5;" horiz-adv-x="1010" 
d="M-58.791 230.017c48.2324 64.6611 129.578 105.309 206.608 123.521c77.7676 18.3994 156.464 15.3389 230.963 -4.66211c25.0801 77.4199 49.9844 154.898 76.9229 231.661c28.4766 81.1367 55.5811 167.711 96.9512 243.368
c15.7549 28.8242 38.6084 60.5801 71.7637 70.1504c33.1445 9.56543 59.7207 -7.62109 82.2266 -30.5811c58.6689 -59.8486 69.5371 -157.345 84.0586 -235.939c16.9414 -91.6748 29.3369 -184.246 41.1719 -276.711c6.59082 -51.4639 13.0801 -102.917 19.8896 -154.306
c58.46 26.7197 116.487 54.3955 174.44 82.002c25.6572 12.2197 39.8848 -17.0215 14.2598 -29.2363c-61.1143 -29.1338 -122.399 -58.332 -184.182 -86.4297c16.8818 -124.259 36.2637 -248.058 64.4951 -370.56c6.32324 -27.457 -27.9004 -52.041 -48.916 -60.1221
c-18.1318 -6.96973 -62.1396 -11.0078 -69.5361 15.8086c-14.0459 50.9082 -25.79 102.275 -35.7344 153.975c-25.5605 64.1162 -56.7559 125.652 -95.8135 181.726c-76.2021 -29.9297 -153.617 -56.5908 -232.837 -77.9434
c-47.832 -12.8877 -96.6572 -24.2207 -145.974 -31.2383c-19.7715 -47.0146 -41.375 -93.0684 -65.7822 -137.424c-36.7549 -66.8027 -80.2979 -144.116 -145.37 -187.077c-64.2012 -42.3848 -151.63 -56.2227 -213.903 -2.85742
c-32.5732 27.9111 35.8906 70.7227 64.7686 48.9375c77.2812 -58.3105 164.801 28.3379 208.574 86.7764c42.3682 56.5586 74.7549 120.69 102.729 186.211c-21.165 -1.65039 -42.3896 -2.36035 -63.6357 -1.88477c-78.0078 1.74609 -164.816 18.2334 -227.565 67.8438
c-62.9355 49.7549 -54.8281 135.667 -10.5742 194.992zM554.357 75.8535c32.4297 10.9805 64.5547 22.75 96.4551 35.0977c-31.0352 40.3125 -66.5996 77.3457 -107.713 109.845c-41.5615 32.8516 -87.9248 59.6035 -136.942 78.499
c-30.9766 -96.3799 -62.0176 -194.64 -99.7666 -289.566c85.3936 12.8984 170.045 39.7412 247.967 66.125zM741.947 56.2725c-2.33398 17.876 -4.49121 35.7783 -6.53711 53.6963c-7.27441 -3.0498 -14.5537 -6.07227 -21.8496 -9.06836
c9.97168 -14.5322 19.4199 -29.4277 28.3867 -44.6279zM502.984 592.668c-29.8174 -84.833 -57.1211 -170.515 -84.792 -256.074c63.8916 -22.7412 123.857 -57.9102 176.4 -102.618c37.209 -31.665 70.252 -67.3037 99.4072 -105.886
c12.6045 5.11621 25.1816 10.2969 37.7217 15.5732c-8.10742 77.4785 -13.8916 155.256 -18.8643 232.916c-5.92285 92.54 -11.7715 185.139 -18.9658 277.588c-3.43457 44.1045 -5.37891 87.8721 -13.1924 131.506c-6.53711 36.5254 -34.0049 106.906 -73.9004 54.1553
c-25.3848 -33.5557 -39.3994 -76.8643 -54.8125 -115.59c-17.3145 -43.4844 -33.4814 -87.418 -49.002 -131.57zM121.641 312.097c-68.1914 -21.5928 -150.983 -69.1953 -169.035 -144.062c-20.8447 -86.4404 60.8154 -130.881 131.688 -150.396
c56.2598 -15.4883 114.629 -18.4629 173.18 -13.6348c6.57422 16.2891 12.9512 32.5947 19.1895 48.8252c32.8887 85.5918 61.9375 172.534 90.3184 259.706c-79.3428 23.083 -163.914 25.3477 -245.34 -0.4375z" />
    <glyph glyph-name="A" unicode="&#xc4;" horiz-adv-x="1010" 
d="M-58.791 230.017c48.2324 64.6611 129.578 105.309 206.608 123.521c77.7676 18.3994 156.464 15.3389 230.963 -4.66211c25.0801 77.4199 49.9844 154.898 76.9229 231.661c28.4766 81.1367 55.5811 167.711 96.9512 243.368
c15.7549 28.8242 38.6084 60.5801 71.7637 70.1504c33.1445 9.56543 59.7207 -7.62109 82.2266 -30.5811c58.6689 -59.8486 69.5371 -157.345 84.0586 -235.939c16.9414 -91.6748 29.3369 -184.246 41.1719 -276.711c6.59082 -51.4639 13.0801 -102.917 19.8896 -154.306
c58.46 26.7197 116.487 54.3955 174.44 82.002c25.6572 12.2197 39.8848 -17.0215 14.2598 -29.2363c-61.1143 -29.1338 -122.399 -58.332 -184.182 -86.4297c16.8818 -124.259 36.2637 -248.058 64.4951 -370.56c6.32324 -27.457 -27.9004 -52.041 -48.916 -60.1221
c-18.1318 -6.96973 -62.1396 -11.0078 -69.5361 15.8086c-14.0459 50.9082 -25.79 102.275 -35.7344 153.975c-25.5605 64.1162 -56.7559 125.652 -95.8135 181.726c-76.2021 -29.9297 -153.617 -56.5908 -232.837 -77.9434
c-47.832 -12.8877 -96.6572 -24.2207 -145.974 -31.2383c-19.7715 -47.0146 -41.375 -93.0684 -65.7822 -137.424c-36.7549 -66.8027 -80.2979 -144.116 -145.37 -187.077c-64.2012 -42.3848 -151.63 -56.2227 -213.903 -2.85742
c-32.5732 27.9111 35.8906 70.7227 64.7686 48.9375c77.2812 -58.3105 164.801 28.3379 208.574 86.7764c42.3682 56.5586 74.7549 120.69 102.729 186.211c-21.165 -1.65039 -42.3896 -2.36035 -63.6357 -1.88477c-78.0078 1.74609 -164.816 18.2334 -227.565 67.8438
c-62.9355 49.7549 -54.8281 135.667 -10.5742 194.992zM554.357 75.8535c32.4297 10.9805 64.5547 22.75 96.4551 35.0977c-31.0352 40.3125 -66.5996 77.3457 -107.713 109.845c-41.5615 32.8516 -87.9248 59.6035 -136.942 78.499
c-30.9766 -96.3799 -62.0176 -194.64 -99.7666 -289.566c85.3936 12.8984 170.045 39.7412 247.967 66.125zM741.947 56.2725c-2.33398 17.876 -4.49121 35.7783 -6.53711 53.6963c-7.27441 -3.0498 -14.5537 -6.07227 -21.8496 -9.06836
c9.97168 -14.5322 19.4199 -29.4277 28.3867 -44.6279zM502.984 592.668c-29.8174 -84.833 -57.1211 -170.515 -84.792 -256.074c63.8916 -22.7412 123.857 -57.9102 176.4 -102.618c37.209 -31.665 70.252 -67.3037 99.4072 -105.886
c12.6045 5.11621 25.1816 10.2969 37.7217 15.5732c-8.10742 77.4785 -13.8916 155.256 -18.8643 232.916c-5.92285 92.54 -11.7715 185.139 -18.9658 277.588c-3.43457 44.1045 -5.37891 87.8721 -13.1924 131.506c-6.53711 36.5254 -34.0049 106.906 -73.9004 54.1553
c-25.3848 -33.5557 -39.3994 -76.8643 -54.8125 -115.59c-17.3145 -43.4844 -33.4814 -87.418 -49.002 -131.57zM121.641 312.097c-68.1914 -21.5928 -150.983 -69.1953 -169.035 -144.062c-20.8447 -86.4404 60.8154 -130.881 131.688 -150.396
c56.2598 -15.4883 114.629 -18.4629 173.18 -13.6348c6.57422 16.2891 12.9512 32.5947 19.1895 48.8252c32.8887 85.5918 61.9375 172.534 90.3184 259.706c-79.3428 23.083 -163.914 25.3477 -245.34 -0.4375z" />
    <glyph glyph-name="A" unicode="&#xc3;" horiz-adv-x="1010" 
d="M-58.791 230.017c48.2324 64.6611 129.578 105.309 206.608 123.521c77.7676 18.3994 156.464 15.3389 230.963 -4.66211c25.0801 77.4199 49.9844 154.898 76.9229 231.661c28.4766 81.1367 55.5811 167.711 96.9512 243.368
c15.7549 28.8242 38.6084 60.5801 71.7637 70.1504c33.1445 9.56543 59.7207 -7.62109 82.2266 -30.5811c58.6689 -59.8486 69.5371 -157.345 84.0586 -235.939c16.9414 -91.6748 29.3369 -184.246 41.1719 -276.711c6.59082 -51.4639 13.0801 -102.917 19.8896 -154.306
c58.46 26.7197 116.487 54.3955 174.44 82.002c25.6572 12.2197 39.8848 -17.0215 14.2598 -29.2363c-61.1143 -29.1338 -122.399 -58.332 -184.182 -86.4297c16.8818 -124.259 36.2637 -248.058 64.4951 -370.56c6.32324 -27.457 -27.9004 -52.041 -48.916 -60.1221
c-18.1318 -6.96973 -62.1396 -11.0078 -69.5361 15.8086c-14.0459 50.9082 -25.79 102.275 -35.7344 153.975c-25.5605 64.1162 -56.7559 125.652 -95.8135 181.726c-76.2021 -29.9297 -153.617 -56.5908 -232.837 -77.9434
c-47.832 -12.8877 -96.6572 -24.2207 -145.974 -31.2383c-19.7715 -47.0146 -41.375 -93.0684 -65.7822 -137.424c-36.7549 -66.8027 -80.2979 -144.116 -145.37 -187.077c-64.2012 -42.3848 -151.63 -56.2227 -213.903 -2.85742
c-32.5732 27.9111 35.8906 70.7227 64.7686 48.9375c77.2812 -58.3105 164.801 28.3379 208.574 86.7764c42.3682 56.5586 74.7549 120.69 102.729 186.211c-21.165 -1.65039 -42.3896 -2.36035 -63.6357 -1.88477c-78.0078 1.74609 -164.816 18.2334 -227.565 67.8438
c-62.9355 49.7549 -54.8281 135.667 -10.5742 194.992zM554.357 75.8535c32.4297 10.9805 64.5547 22.75 96.4551 35.0977c-31.0352 40.3125 -66.5996 77.3457 -107.713 109.845c-41.5615 32.8516 -87.9248 59.6035 -136.942 78.499
c-30.9766 -96.3799 -62.0176 -194.64 -99.7666 -289.566c85.3936 12.8984 170.045 39.7412 247.967 66.125zM741.947 56.2725c-2.33398 17.876 -4.49121 35.7783 -6.53711 53.6963c-7.27441 -3.0498 -14.5537 -6.07227 -21.8496 -9.06836
c9.97168 -14.5322 19.4199 -29.4277 28.3867 -44.6279zM502.984 592.668c-29.8174 -84.833 -57.1211 -170.515 -84.792 -256.074c63.8916 -22.7412 123.857 -57.9102 176.4 -102.618c37.209 -31.665 70.252 -67.3037 99.4072 -105.886
c12.6045 5.11621 25.1816 10.2969 37.7217 15.5732c-8.10742 77.4785 -13.8916 155.256 -18.8643 232.916c-5.92285 92.54 -11.7715 185.139 -18.9658 277.588c-3.43457 44.1045 -5.37891 87.8721 -13.1924 131.506c-6.53711 36.5254 -34.0049 106.906 -73.9004 54.1553
c-25.3848 -33.5557 -39.3994 -76.8643 -54.8125 -115.59c-17.3145 -43.4844 -33.4814 -87.418 -49.002 -131.57zM121.641 312.097c-68.1914 -21.5928 -150.983 -69.1953 -169.035 -144.062c-20.8447 -86.4404 60.8154 -130.881 131.688 -150.396
c56.2598 -15.4883 114.629 -18.4629 173.18 -13.6348c6.57422 16.2891 12.9512 32.5947 19.1895 48.8252c32.8887 85.5918 61.9375 172.534 90.3184 259.706c-79.3428 23.083 -163.914 25.3477 -245.34 -0.4375z" />
    <glyph glyph-name="A" unicode="&#xc2;" horiz-adv-x="1010" 
d="M-58.791 230.017c48.2324 64.6611 129.578 105.309 206.608 123.521c77.7676 18.3994 156.464 15.3389 230.963 -4.66211c25.0801 77.4199 49.9844 154.898 76.9229 231.661c28.4766 81.1367 55.5811 167.711 96.9512 243.368
c15.7549 28.8242 38.6084 60.5801 71.7637 70.1504c33.1445 9.56543 59.7207 -7.62109 82.2266 -30.5811c58.6689 -59.8486 69.5371 -157.345 84.0586 -235.939c16.9414 -91.6748 29.3369 -184.246 41.1719 -276.711c6.59082 -51.4639 13.0801 -102.917 19.8896 -154.306
c58.46 26.7197 116.487 54.3955 174.44 82.002c25.6572 12.2197 39.8848 -17.0215 14.2598 -29.2363c-61.1143 -29.1338 -122.399 -58.332 -184.182 -86.4297c16.8818 -124.259 36.2637 -248.058 64.4951 -370.56c6.32324 -27.457 -27.9004 -52.041 -48.916 -60.1221
c-18.1318 -6.96973 -62.1396 -11.0078 -69.5361 15.8086c-14.0459 50.9082 -25.79 102.275 -35.7344 153.975c-25.5605 64.1162 -56.7559 125.652 -95.8135 181.726c-76.2021 -29.9297 -153.617 -56.5908 -232.837 -77.9434
c-47.832 -12.8877 -96.6572 -24.2207 -145.974 -31.2383c-19.7715 -47.0146 -41.375 -93.0684 -65.7822 -137.424c-36.7549 -66.8027 -80.2979 -144.116 -145.37 -187.077c-64.2012 -42.3848 -151.63 -56.2227 -213.903 -2.85742
c-32.5732 27.9111 35.8906 70.7227 64.7686 48.9375c77.2812 -58.3105 164.801 28.3379 208.574 86.7764c42.3682 56.5586 74.7549 120.69 102.729 186.211c-21.165 -1.65039 -42.3896 -2.36035 -63.6357 -1.88477c-78.0078 1.74609 -164.816 18.2334 -227.565 67.8438
c-62.9355 49.7549 -54.8281 135.667 -10.5742 194.992zM554.357 75.8535c32.4297 10.9805 64.5547 22.75 96.4551 35.0977c-31.0352 40.3125 -66.5996 77.3457 -107.713 109.845c-41.5615 32.8516 -87.9248 59.6035 -136.942 78.499
c-30.9766 -96.3799 -62.0176 -194.64 -99.7666 -289.566c85.3936 12.8984 170.045 39.7412 247.967 66.125zM741.947 56.2725c-2.33398 17.876 -4.49121 35.7783 -6.53711 53.6963c-7.27441 -3.0498 -14.5537 -6.07227 -21.8496 -9.06836
c9.97168 -14.5322 19.4199 -29.4277 28.3867 -44.6279zM502.984 592.668c-29.8174 -84.833 -57.1211 -170.515 -84.792 -256.074c63.8916 -22.7412 123.857 -57.9102 176.4 -102.618c37.209 -31.665 70.252 -67.3037 99.4072 -105.886
c12.6045 5.11621 25.1816 10.2969 37.7217 15.5732c-8.10742 77.4785 -13.8916 155.256 -18.8643 232.916c-5.92285 92.54 -11.7715 185.139 -18.9658 277.588c-3.43457 44.1045 -5.37891 87.8721 -13.1924 131.506c-6.53711 36.5254 -34.0049 106.906 -73.9004 54.1553
c-25.3848 -33.5557 -39.3994 -76.8643 -54.8125 -115.59c-17.3145 -43.4844 -33.4814 -87.418 -49.002 -131.57zM121.641 312.097c-68.1914 -21.5928 -150.983 -69.1953 -169.035 -144.062c-20.8447 -86.4404 60.8154 -130.881 131.688 -150.396
c56.2598 -15.4883 114.629 -18.4629 173.18 -13.6348c6.57422 16.2891 12.9512 32.5947 19.1895 48.8252c32.8887 85.5918 61.9375 172.534 90.3184 259.706c-79.3428 23.083 -163.914 25.3477 -245.34 -0.4375z" />
    <glyph glyph-name="A" unicode="&#xc1;" horiz-adv-x="1010" 
d="M-58.791 230.017c48.2324 64.6611 129.578 105.309 206.608 123.521c77.7676 18.3994 156.464 15.3389 230.963 -4.66211c25.0801 77.4199 49.9844 154.898 76.9229 231.661c28.4766 81.1367 55.5811 167.711 96.9512 243.368
c15.7549 28.8242 38.6084 60.5801 71.7637 70.1504c33.1445 9.56543 59.7207 -7.62109 82.2266 -30.5811c58.6689 -59.8486 69.5371 -157.345 84.0586 -235.939c16.9414 -91.6748 29.3369 -184.246 41.1719 -276.711c6.59082 -51.4639 13.0801 -102.917 19.8896 -154.306
c58.46 26.7197 116.487 54.3955 174.44 82.002c25.6572 12.2197 39.8848 -17.0215 14.2598 -29.2363c-61.1143 -29.1338 -122.399 -58.332 -184.182 -86.4297c16.8818 -124.259 36.2637 -248.058 64.4951 -370.56c6.32324 -27.457 -27.9004 -52.041 -48.916 -60.1221
c-18.1318 -6.96973 -62.1396 -11.0078 -69.5361 15.8086c-14.0459 50.9082 -25.79 102.275 -35.7344 153.975c-25.5605 64.1162 -56.7559 125.652 -95.8135 181.726c-76.2021 -29.9297 -153.617 -56.5908 -232.837 -77.9434
c-47.832 -12.8877 -96.6572 -24.2207 -145.974 -31.2383c-19.7715 -47.0146 -41.375 -93.0684 -65.7822 -137.424c-36.7549 -66.8027 -80.2979 -144.116 -145.37 -187.077c-64.2012 -42.3848 -151.63 -56.2227 -213.903 -2.85742
c-32.5732 27.9111 35.8906 70.7227 64.7686 48.9375c77.2812 -58.3105 164.801 28.3379 208.574 86.7764c42.3682 56.5586 74.7549 120.69 102.729 186.211c-21.165 -1.65039 -42.3896 -2.36035 -63.6357 -1.88477c-78.0078 1.74609 -164.816 18.2334 -227.565 67.8438
c-62.9355 49.7549 -54.8281 135.667 -10.5742 194.992zM554.357 75.8535c32.4297 10.9805 64.5547 22.75 96.4551 35.0977c-31.0352 40.3125 -66.5996 77.3457 -107.713 109.845c-41.5615 32.8516 -87.9248 59.6035 -136.942 78.499
c-30.9766 -96.3799 -62.0176 -194.64 -99.7666 -289.566c85.3936 12.8984 170.045 39.7412 247.967 66.125zM741.947 56.2725c-2.33398 17.876 -4.49121 35.7783 -6.53711 53.6963c-7.27441 -3.0498 -14.5537 -6.07227 -21.8496 -9.06836
c9.97168 -14.5322 19.4199 -29.4277 28.3867 -44.6279zM502.984 592.668c-29.8174 -84.833 -57.1211 -170.515 -84.792 -256.074c63.8916 -22.7412 123.857 -57.9102 176.4 -102.618c37.209 -31.665 70.252 -67.3037 99.4072 -105.886
c12.6045 5.11621 25.1816 10.2969 37.7217 15.5732c-8.10742 77.4785 -13.8916 155.256 -18.8643 232.916c-5.92285 92.54 -11.7715 185.139 -18.9658 277.588c-3.43457 44.1045 -5.37891 87.8721 -13.1924 131.506c-6.53711 36.5254 -34.0049 106.906 -73.9004 54.1553
c-25.3848 -33.5557 -39.3994 -76.8643 -54.8125 -115.59c-17.3145 -43.4844 -33.4814 -87.418 -49.002 -131.57zM121.641 312.097c-68.1914 -21.5928 -150.983 -69.1953 -169.035 -144.062c-20.8447 -86.4404 60.8154 -130.881 131.688 -150.396
c56.2598 -15.4883 114.629 -18.4629 173.18 -13.6348c6.57422 16.2891 12.9512 32.5947 19.1895 48.8252c32.8887 85.5918 61.9375 172.534 90.3184 259.706c-79.3428 23.083 -163.914 25.3477 -245.34 -0.4375z" />
    <glyph glyph-name="B" unicode="B" horiz-adv-x="1194" 
d="M-14.5225 617.672c29.9404 149.985 200.96 240.776 331.307 288.042c80.7041 29.2617 166.744 50.0156 252.507 56.1152c86.3447 6.13672 168.854 -8.13965 249.356 -39.0518c67.166 -25.791 138.044 -61.2002 160.561 -135.432
c23.0293 -75.9355 -6.18457 -156.277 -49.1729 -219.421c-45.4824 -66.8076 -108.381 -120.648 -179.456 -161.82c130.854 -7.71191 251.064 -73.2969 276.064 -213.989c62.9355 21.0049 123.676 47.7197 182.323 80.2715
c26.3086 14.6016 40.7979 -16.3799 14.9863 -30.7256c-61.8359 -34.373 -126.353 -62.8125 -193.188 -84.9229c5.84766 -100.775 -37.6533 -199.254 -94.4316 -280.316c-58.4492 -83.4492 -134.054 -150.936 -222.732 -200.974
c-89.7461 -50.6416 -196.631 -83.0654 -300.247 -76.4268c-98.7139 6.3291 -194.96 72.8965 -190.543 180.241c4.14453 100.839 77.7031 176.293 159.722 225.562c-0.395508 4.7373 -0.791016 9.47461 -1.18066 14.2061c-5.83789 71.1816 -7.75 142.454 -7.22168 213.865
c1.0791 145.947 11.2588 292.215 34.8066 436.299c9.52832 58.2949 131.811 82.5049 123.976 7.49902c-9.14844 -87.5781 -18.457 -175.151 -25.1602 -262.927c70.4395 21.668 140.623 40.3291 205.765 76.4912c53.3379 29.6094 103.076 70.5254 139.559 121.15
c34.8428 48.3447 65.0986 118.096 42.7793 177.603c-21.8916 58.375 -82.5518 92.8496 -138.518 111.879c-139.961 47.5859 -292.681 20.9512 -428.897 -26.9932c-112.813 -39.709 -261.181 -115.163 -294.47 -241.28c-8.75879 -33.1982 -9.34668 -71.166 14.5742 -98.3613
c17.7529 -20.1885 44.2217 -31.0254 70.2256 -35.5225c31.9268 -5.5166 64.5273 -1.81055 95.2422 8.05371c13.0693 4.19824 29.3271 9.91797 39.8223 19.2754c4.01074 3.58398 16.6787 22.3193 23.5527 30.6348c15.6113 18.8955 54.1025 32.3438 74.542 12.9941
c23.0244 -21.79 -4.82812 -49.5938 -23.3926 -60.8896c-18.5488 -11.2852 -41.9629 -15.3975 -55.5234 -22.4473c-18.1855 -9.45312 -39.9648 -15.7285 -59.7949 -20.6582c-38.1602 -9.49023 -80.1436 -12.166 -118.886 -4.48047
c-33.668 6.67578 -67.4375 21.7207 -89.2656 49.0547c-24.4609 30.6396 -27.0352 70.1025 -19.5898 107.402zM687.898 -237.187c121.737 75.2627 234.582 216.164 238.588 365.113c-77.2598 -17.4805 -155.86 -28.0127 -233.393 -44.1689
c-66.4717 -13.8486 -131.159 -32.9844 -193.251 -59.7256c0.785156 -22.4043 1.74121 -44.7979 2.56934 -67.1973c1.10547 -29.9561 11.4297 -60.0674 11.0449 -89.4736c-0.501953 -38.2295 -51.3408 -59.79 -81.2227 -39.6123
c-27.8896 18.832 -34.2822 59.6191 -39.6875 90.5156c-2.66016 15.1836 -4.59863 30.501 -6.23828 45.8555c-54.4062 -36.3066 -101.763 -85.7305 -95.001 -153.5c8.79102 -88.1387 112.525 -123.634 187.633 -117.866c74.6533 5.73047 147.977 32.3594 208.958 70.0596z
M924.521 171.555c-10.4043 86.0723 -67.7637 150.99 -151.998 172.514c-92.6094 23.6592 -184.738 -0.118164 -267.627 -42.7002c-1.3623 -0.705078 -2.72461 -1.26562 -4.08105 -1.7627c-0.491211 -11.0977 -1.01953 -22.1904 -1.38281 -33.2988
c-2.20605 -67.9775 -2.13672 -136.089 -0.705078 -204.082c52.5322 21.3467 107.04 38.0527 162.018 50.6992c84.8916 19.5312 171.529 30.1006 256.565 48.9375c2.66016 0.592773 5.29883 1.22852 7.94824 1.83691c-0.240234 2.61719 -0.421875 5.23438 -0.737305 7.85645z
" />
    <glyph glyph-name="C" unicode="C" horiz-adv-x="776" 
d="M126.969 335.897c-78.376 30.085 -134.981 102.477 -145.3 191.657c-6.80957 58.7803 10.1631 119.633 41.4229 169.351c29.4014 46.7637 78.8779 103.91 136.334 111.617c15.8887 2.13086 26.2607 -10.3555 21.6406 -24.8506
c-4.99316 -15.6699 -24.834 -23.6172 -39.9541 -21.9238c-14.9062 1.67188 -35.6816 -22.1377 -45.0068 -31.751c-9.96582 -10.2754 -19.2744 -21.3682 -27.4668 -33.1182c-15.915 -22.8213 -28.2627 -48.5 -35.75 -75.2891
c-15.8301 -56.6123 -9.03125 -115.74 20.21 -166.856c20.0176 -34.9873 49.627 -62.8711 85.0635 -79.6895c39.3242 131.121 95.3867 266.739 179.852 375.296c41.9033 53.8564 96.1064 101.571 159.459 128.275c55.3574 23.334 138.086 34.1064 173.19 -28.082
c33.1768 -58.7646 7.86133 -129.984 -15.5371 -187.104c-24.6045 -60.0732 -59.3623 -115.842 -101.496 -165.186c-73.3984 -85.9492 -178.814 -163.802 -294.613 -175.792c-12.0967 -46.1172 -21.9717 -92.7959 -29.7158 -139.587
c-19.8301 -119.805 -31.0352 -246.504 -8.35254 -366.688c8.67383 -45.957 24.3438 -98.4141 62.1621 -128.899c48.2168 -38.8652 107.825 -27.6494 159.311 -1.41016c97.1865 49.5303 169.105 150.358 225.456 240.628c60.7725 97.3574 106.308 203.18 135.938 314.017
c4.69434 17.5762 44.1523 24.583 38.3896 2.32227c-38.2822 -147.939 -104.609 -287.286 -195.691 -410.022c-84.123 -113.363 -197.374 -220.526 -348.972 -211.004c-147.539 9.27148 -185.347 186.228 -193.796 305.53c-9.62402 135.886 7.60547 276.669 43.2227 408.56z
M474.714 779.965c-78.1787 -65.4141 -127.632 -169.309 -167.768 -260.705c-22.7461 -51.7793 -41.8711 -105.353 -57.749 -159.897c41.9941 5.66699 82.7715 22.3623 118.944 43.6133c92.7109 54.4648 165.447 143.191 209.37 240.5
c19.6865 43.6133 54.0869 120.841 12.5254 161.58c-35.8311 35.1211 -85.0303 0.256836 -115.323 -25.0908z" />
    <glyph glyph-name="D" unicode="D" horiz-adv-x="1110" 
d="M171.188 822.806c111.062 88.6299 253.183 142.853 395.803 143.894c150.119 1.10059 281.737 -70.8877 347.578 -208.108c67.2139 -140.094 68.4639 -312.414 36.6758 -461.839c-6.07812 -28.5625 -13.4482 -57.0879 -22.0254 -85.3623
c66.9521 10.3984 133.493 22.9971 198.934 41.5879c29.4648 8.37402 27.4619 -26.9336 2.84082 -33.957c-70.2422 -20.0439 -141.718 -33.2246 -213.615 -44.1416c-39.9062 -115.58 -101.336 -225.114 -185.539 -312.575
c-113.646 -118.042 -275.339 -199.297 -442.383 -182.143c-61.2109 6.29102 -137.199 36.749 -160.437 98.9482c-24.584 65.793 18.084 145.904 62.418 193.693c48.2061 51.9551 108.13 90.2275 173.144 119.218c-1.63477 46.0107 -2.15234 92.1123 -0.993164 138.086
c3.23145 128.35 11.6963 256.753 25.3311 384.397c2.95312 27.6436 38.5117 46.5928 62.3154 50.6357c19.4141 3.29492 57.1201 -3.61035 55.5869 -31.2539c-6.98535 -125.797 -19.0391 -251.198 -23.7979 -377.145c-1.55371 -41.1348 -2.8623 -82.248 -3.38574 -123.377
c46.2988 13.3311 93.1904 23.585 138.662 32.0391c64.5967 12.0117 129.786 20.7119 194.943 29.4971c16.5186 46.7422 29.5605 94.6328 39.4619 142.46c26.4316 127.645 33.0645 274.602 -9.65137 399.667c-19.4727 57.0127 -51.5439 113.251 -102.703 147.304
c-56.2754 37.4551 -129.23 47.416 -195.408 45.2314c-124.926 -4.12793 -246.717 -51.0146 -344.618 -128.227c-95.0654 -74.9736 -204.119 -206.656 -181.159 -336.998c5.89062 -33.4443 27.9854 -59.3525 64.3076 -57.7285
c34.918 1.55957 65.3389 28.2314 89.2393 51.5283c23.7559 23.1572 46.8975 50.1064 60.6816 80.5703c11.6211 25.6895 16.4541 57.334 22.4141 84.8867c10.1523 46.9404 104.534 52.3027 82.2471 -3.89844c-14.3291 -36.1406 -36.2158 -63.4482 -58.3691 -94.8037
c-41.2627 -58.3906 -94.873 -121.193 -163.833 -146.803c-64.5703 -23.9805 -131.004 2.68652 -142.775 73.9648c-23.7559 143.838 93.4902 287.259 198.11 370.751zM696.089 -28.4375c42.7637 56.7188 76.7617 120.199 103.321 186.713
c-53.1406 -7.23633 -106.271 -14.6064 -159.059 -23.9473c-53.9258 -9.54395 -108.204 -20.9199 -160.912 -36.8838c0.015625 -10.0674 -0.0214844 -20.1299 0.12793 -30.2021c0.480469 -31.6387 0.886719 -63.3145 1.8584 -94.9424
c0.960938 -31.3184 5.25 -63.9346 -0.84375 -94.8789c-6.12012 -31.083 -68.7725 -58.8174 -86.376 -23.3281c-14.0781 28.3867 -15.5947 64.0361 -19.3496 95.125c-3.74902 31.0303 -6.50488 62.0117 -8.12891 93.2236
c-0.197266 3.80273 -0.325195 7.61621 -0.506836 11.4189c-54.8496 -26.1162 -109.582 -61.04 -143.256 -110.282c-16.8184 -24.5947 -33.5889 -58.0977 -22.4102 -87.9521c8.24121 -22.0039 20.6104 -41.5996 39.3994 -56.0039
c42.7051 -32.7393 107.563 -32.1035 157.98 -23.6973c123.318 20.5615 224.28 97.6553 298.154 195.638z" />
    <glyph glyph-name="E" unicode="E" horiz-adv-x="767" 
d="M56.0283 740.12c27.5049 30.6826 61.8604 62.9375 103.973 68.4229c15.8779 2.06152 26.2715 -10.3076 21.6406 -24.8506c-5.01465 -15.7285 -24.8184 -23.542 -39.9541 -21.9238c-18.0146 1.92773 -42.6895 -28.8193 -53.2324 -40.708
c-14.0459 -15.835 -26.0576 -33.1494 -35.9111 -51.8799c-19.0234 -36.168 -29.417 -77.2812 -27.4141 -118.239c3.77637 -77.292 51.9346 -153.297 125.456 -181.448c27.8633 -10.6709 56.1104 -14.543 84.123 -13.0635
c-13.8486 48.8623 -18.9062 100.123 -15.2207 147.758c7.33301 94.8789 41.7861 185.811 104.044 258.317c57.6592 67.1494 153.265 137.033 246.547 128.424c42.3574 -3.90918 76.3037 -32.9736 88.7158 -73.3604c13.9609 -45.4336 -0.357422 -93.9707 -16.6465 -136.847
c-32.3223 -85.0732 -83.4385 -163.027 -149.253 -225.995c-34.8164 -33.3105 -78.75 -65.334 -126.545 -89.7041c9.03613 -20.7275 20.0918 -40.8252 32.4395 -59.2725c2.49414 -3.72754 5.08398 -7.38086 7.70117 -11.0176
c0.363281 -0.448242 0.758789 -0.939453 1.19141 -1.45801c3.26855 -3.93652 6.44629 -7.93164 9.81641 -11.7881c3.17285 -3.63184 6.35547 -7.28516 9.82129 -10.6445c38.6084 -37.3965 -26.5225 -82.9268 -60.7832 -85.9707
c-8.0166 -2.1416 -15.9365 -4.38965 -23.873 -6.72852c6.56348 1.78418 -11.75 -4.47559 -16.4717 -6.72949c-3.45508 -1.65039 -21.9873 -12.2256 -18.4033 -9.64551c-15.0234 -9.90137 -32.2158 -23.5576 -38.7422 -30.0732
c-75.5342 -75.4336 -115.862 -189.807 -96.417 -295.49c16.3213 -88.6943 83.0381 -191.056 185.592 -173.009c119.425 21.0156 207.355 138.208 270.403 232.537c70.5996 105.619 122.998 222.097 155.779 344.79c4.69434 17.582 44.1523 24.584 38.3896 2.32324
c-40.5791 -156.746 -112.701 -304.114 -212.344 -431.812c-82.1035 -105.219 -193.053 -202.282 -335.357 -184.204c-54.001 6.85742 -96.9092 28.4287 -133.151 69.1572c-38.3252 43.0684 -61.1895 95.542 -70.2051 152.379
c-24.3486 153.499 69.7451 329.563 211.228 401.749c-15.2695 22.917 -27.8154 47.9492 -37.6426 74.1836c-77.457 -11.8564 -154.018 6.35547 -210.87 77.5801c-51.2236 64.1699 -66.4873 150.477 -41.5137 228.58c12.9512 40.499 34.71 78.0068 63.0908 109.662z
M406.093 295.225c-2.28613 3.11914 -1.80566 2.29688 0 0zM348.674 417.197c1.83691 -7.83984 4.15527 -15.6953 6.71875 -23.5195c73.1689 40.3018 137.066 106.741 177.603 167.658c20.4873 30.7842 38.085 63.5928 52.2275 97.7627
c15.5254 37.5137 34.0254 83.7275 22.5 124.424c-23.7021 83.7109 -112.258 21.3252 -151.154 -13.9082c-95.3379 -86.3662 -137.065 -227.747 -107.895 -352.417z" />
    <glyph glyph-name="E" unicode="&#xcb;" horiz-adv-x="767" 
d="M56.0283 740.12c27.5049 30.6826 61.8604 62.9375 103.973 68.4229c15.8779 2.06152 26.2715 -10.3076 21.6406 -24.8506c-5.01465 -15.7285 -24.8184 -23.542 -39.9541 -21.9238c-18.0146 1.92773 -42.6895 -28.8193 -53.2324 -40.708
c-14.0459 -15.835 -26.0576 -33.1494 -35.9111 -51.8799c-19.0234 -36.168 -29.417 -77.2812 -27.4141 -118.239c3.77637 -77.292 51.9346 -153.297 125.456 -181.448c27.8633 -10.6709 56.1104 -14.543 84.123 -13.0635
c-13.8486 48.8623 -18.9062 100.123 -15.2207 147.758c7.33301 94.8789 41.7861 185.811 104.044 258.317c57.6592 67.1494 153.265 137.033 246.547 128.424c42.3574 -3.90918 76.3037 -32.9736 88.7158 -73.3604c13.9609 -45.4336 -0.357422 -93.9707 -16.6465 -136.847
c-32.3223 -85.0732 -83.4385 -163.027 -149.253 -225.995c-34.8164 -33.3105 -78.75 -65.334 -126.545 -89.7041c9.03613 -20.7275 20.0918 -40.8252 32.4395 -59.2725c2.49414 -3.72754 5.08398 -7.38086 7.70117 -11.0176
c0.363281 -0.448242 0.758789 -0.939453 1.19141 -1.45801c3.26855 -3.93652 6.44629 -7.93164 9.81641 -11.7881c3.17285 -3.63184 6.35547 -7.28516 9.82129 -10.6445c38.6084 -37.3965 -26.5225 -82.9268 -60.7832 -85.9707
c-8.0166 -2.1416 -15.9365 -4.38965 -23.873 -6.72852c6.56348 1.78418 -11.75 -4.47559 -16.4717 -6.72949c-3.45508 -1.65039 -21.9873 -12.2256 -18.4033 -9.64551c-15.0234 -9.90137 -32.2158 -23.5576 -38.7422 -30.0732
c-75.5342 -75.4336 -115.862 -189.807 -96.417 -295.49c16.3213 -88.6943 83.0381 -191.056 185.592 -173.009c119.425 21.0156 207.355 138.208 270.403 232.537c70.5996 105.619 122.998 222.097 155.779 344.79c4.69434 17.582 44.1523 24.584 38.3896 2.32324
c-40.5791 -156.746 -112.701 -304.114 -212.344 -431.812c-82.1035 -105.219 -193.053 -202.282 -335.357 -184.204c-54.001 6.85742 -96.9092 28.4287 -133.151 69.1572c-38.3252 43.0684 -61.1895 95.542 -70.2051 152.379
c-24.3486 153.499 69.7451 329.563 211.228 401.749c-15.2695 22.917 -27.8154 47.9492 -37.6426 74.1836c-77.457 -11.8564 -154.018 6.35547 -210.87 77.5801c-51.2236 64.1699 -66.4873 150.477 -41.5137 228.58c12.9512 40.499 34.71 78.0068 63.0908 109.662z
M406.093 295.225c-2.28613 3.11914 -1.80566 2.29688 0 0zM348.674 417.197c1.83691 -7.83984 4.15527 -15.6953 6.71875 -23.5195c73.1689 40.3018 137.066 106.741 177.603 167.658c20.4873 30.7842 38.085 63.5928 52.2275 97.7627
c15.5254 37.5137 34.0254 83.7275 22.5 124.424c-23.7021 83.7109 -112.258 21.3252 -151.154 -13.9082c-95.3379 -86.3662 -137.065 -227.747 -107.895 -352.417z" />
    <glyph glyph-name="E" unicode="&#xca;" horiz-adv-x="767" 
d="M56.0283 740.12c27.5049 30.6826 61.8604 62.9375 103.973 68.4229c15.8779 2.06152 26.2715 -10.3076 21.6406 -24.8506c-5.01465 -15.7285 -24.8184 -23.542 -39.9541 -21.9238c-18.0146 1.92773 -42.6895 -28.8193 -53.2324 -40.708
c-14.0459 -15.835 -26.0576 -33.1494 -35.9111 -51.8799c-19.0234 -36.168 -29.417 -77.2812 -27.4141 -118.239c3.77637 -77.292 51.9346 -153.297 125.456 -181.448c27.8633 -10.6709 56.1104 -14.543 84.123 -13.0635
c-13.8486 48.8623 -18.9062 100.123 -15.2207 147.758c7.33301 94.8789 41.7861 185.811 104.044 258.317c57.6592 67.1494 153.265 137.033 246.547 128.424c42.3574 -3.90918 76.3037 -32.9736 88.7158 -73.3604c13.9609 -45.4336 -0.357422 -93.9707 -16.6465 -136.847
c-32.3223 -85.0732 -83.4385 -163.027 -149.253 -225.995c-34.8164 -33.3105 -78.75 -65.334 -126.545 -89.7041c9.03613 -20.7275 20.0918 -40.8252 32.4395 -59.2725c2.49414 -3.72754 5.08398 -7.38086 7.70117 -11.0176
c0.363281 -0.448242 0.758789 -0.939453 1.19141 -1.45801c3.26855 -3.93652 6.44629 -7.93164 9.81641 -11.7881c3.17285 -3.63184 6.35547 -7.28516 9.82129 -10.6445c38.6084 -37.3965 -26.5225 -82.9268 -60.7832 -85.9707
c-8.0166 -2.1416 -15.9365 -4.38965 -23.873 -6.72852c6.56348 1.78418 -11.75 -4.47559 -16.4717 -6.72949c-3.45508 -1.65039 -21.9873 -12.2256 -18.4033 -9.64551c-15.0234 -9.90137 -32.2158 -23.5576 -38.7422 -30.0732
c-75.5342 -75.4336 -115.862 -189.807 -96.417 -295.49c16.3213 -88.6943 83.0381 -191.056 185.592 -173.009c119.425 21.0156 207.355 138.208 270.403 232.537c70.5996 105.619 122.998 222.097 155.779 344.79c4.69434 17.582 44.1523 24.584 38.3896 2.32324
c-40.5791 -156.746 -112.701 -304.114 -212.344 -431.812c-82.1035 -105.219 -193.053 -202.282 -335.357 -184.204c-54.001 6.85742 -96.9092 28.4287 -133.151 69.1572c-38.3252 43.0684 -61.1895 95.542 -70.2051 152.379
c-24.3486 153.499 69.7451 329.563 211.228 401.749c-15.2695 22.917 -27.8154 47.9492 -37.6426 74.1836c-77.457 -11.8564 -154.018 6.35547 -210.87 77.5801c-51.2236 64.1699 -66.4873 150.477 -41.5137 228.58c12.9512 40.499 34.71 78.0068 63.0908 109.662z
M406.093 295.225c-2.28613 3.11914 -1.80566 2.29688 0 0zM348.674 417.197c1.83691 -7.83984 4.15527 -15.6953 6.71875 -23.5195c73.1689 40.3018 137.066 106.741 177.603 167.658c20.4873 30.7842 38.085 63.5928 52.2275 97.7627
c15.5254 37.5137 34.0254 83.7275 22.5 124.424c-23.7021 83.7109 -112.258 21.3252 -151.154 -13.9082c-95.3379 -86.3662 -137.065 -227.747 -107.895 -352.417z" />
    <glyph glyph-name="E" unicode="&#xc9;" horiz-adv-x="767" 
d="M56.0283 740.12c27.5049 30.6826 61.8604 62.9375 103.973 68.4229c15.8779 2.06152 26.2715 -10.3076 21.6406 -24.8506c-5.01465 -15.7285 -24.8184 -23.542 -39.9541 -21.9238c-18.0146 1.92773 -42.6895 -28.8193 -53.2324 -40.708
c-14.0459 -15.835 -26.0576 -33.1494 -35.9111 -51.8799c-19.0234 -36.168 -29.417 -77.2812 -27.4141 -118.239c3.77637 -77.292 51.9346 -153.297 125.456 -181.448c27.8633 -10.6709 56.1104 -14.543 84.123 -13.0635
c-13.8486 48.8623 -18.9062 100.123 -15.2207 147.758c7.33301 94.8789 41.7861 185.811 104.044 258.317c57.6592 67.1494 153.265 137.033 246.547 128.424c42.3574 -3.90918 76.3037 -32.9736 88.7158 -73.3604c13.9609 -45.4336 -0.357422 -93.9707 -16.6465 -136.847
c-32.3223 -85.0732 -83.4385 -163.027 -149.253 -225.995c-34.8164 -33.3105 -78.75 -65.334 -126.545 -89.7041c9.03613 -20.7275 20.0918 -40.8252 32.4395 -59.2725c2.49414 -3.72754 5.08398 -7.38086 7.70117 -11.0176
c0.363281 -0.448242 0.758789 -0.939453 1.19141 -1.45801c3.26855 -3.93652 6.44629 -7.93164 9.81641 -11.7881c3.17285 -3.63184 6.35547 -7.28516 9.82129 -10.6445c38.6084 -37.3965 -26.5225 -82.9268 -60.7832 -85.9707
c-8.0166 -2.1416 -15.9365 -4.38965 -23.873 -6.72852c6.56348 1.78418 -11.75 -4.47559 -16.4717 -6.72949c-3.45508 -1.65039 -21.9873 -12.2256 -18.4033 -9.64551c-15.0234 -9.90137 -32.2158 -23.5576 -38.7422 -30.0732
c-75.5342 -75.4336 -115.862 -189.807 -96.417 -295.49c16.3213 -88.6943 83.0381 -191.056 185.592 -173.009c119.425 21.0156 207.355 138.208 270.403 232.537c70.5996 105.619 122.998 222.097 155.779 344.79c4.69434 17.582 44.1523 24.584 38.3896 2.32324
c-40.5791 -156.746 -112.701 -304.114 -212.344 -431.812c-82.1035 -105.219 -193.053 -202.282 -335.357 -184.204c-54.001 6.85742 -96.9092 28.4287 -133.151 69.1572c-38.3252 43.0684 -61.1895 95.542 -70.2051 152.379
c-24.3486 153.499 69.7451 329.563 211.228 401.749c-15.2695 22.917 -27.8154 47.9492 -37.6426 74.1836c-77.457 -11.8564 -154.018 6.35547 -210.87 77.5801c-51.2236 64.1699 -66.4873 150.477 -41.5137 228.58c12.9512 40.499 34.71 78.0068 63.0908 109.662z
M406.093 295.225c-2.28613 3.11914 -1.80566 2.29688 0 0zM348.674 417.197c1.83691 -7.83984 4.15527 -15.6953 6.71875 -23.5195c73.1689 40.3018 137.066 106.741 177.603 167.658c20.4873 30.7842 38.085 63.5928 52.2275 97.7627
c15.5254 37.5137 34.0254 83.7275 22.5 124.424c-23.7021 83.7109 -112.258 21.3252 -151.154 -13.9082c-95.3379 -86.3662 -137.065 -227.747 -107.895 -352.417z" />
    <glyph glyph-name="F" unicode="F" horiz-adv-x="752" 
d="M378.183 367.878c-5.30371 -47.1592 -9.06934 -94.4336 -10.8906 -141.405c-2.88379 -74.792 -0.506836 -150.599 10.2012 -224.99c142.354 68.5225 271.776 161.238 382.063 274.618c14.5645 14.9697 50.46 6.10449 30.9873 -14.1426
c-100.888 -104.898 -217.156 -193.277 -344.918 -262.099c97.1914 -4.06445 194.896 -50.9619 236.639 -142.103c23.9053 -52.1953 20.4707 -115.516 -13.8438 -162.381c-34.0586 -46.5127 -98.5273 -72.501 -155.241 -69.9531
c-129.15 5.7998 -200.087 126.773 -233.91 237.638c-39.5059 129.472 -46.6514 263.328 -37.1182 397.713c2.08789 29.4385 4.62988 58.9414 7.77051 88.4014c-16.5137 0.94043 -33.1338 3.19922 -49.8076 7.00195c-119.452 27.2539 -210.641 124.354 -218.967 248.33
c-3.43457 51.1113 103.499 83.8721 105.614 28.1514c3.92578 -103.371 66.6318 -204.199 169.084 -234.001c12.4658 93.3086 32.5957 185.522 67.6523 273.025c25 62.4014 59.9072 118.709 104.54 168.838c39.8262 44.7295 91.1777 88.209 150.434 103.302
c51.8057 13.1973 105.454 3.77637 134.273 -45.0332c29.2568 -49.5469 18.6396 -112.039 3.8457 -164.438c-30.79 -109.075 -99.2217 -204.402 -185.229 -277.048c-45.3643 -38.3145 -97.4316 -70.29 -153.179 -89.4258zM511.291 835.172
c-60.3613 -79.6201 -84.7871 -185.532 -104.046 -281.495c-9.88086 -49.2471 -18.1426 -99.3008 -24.6904 -149.611c65.7881 23.0244 125.45 72.875 171.178 121.62c65.04 69.3232 113.722 157.142 128.756 251.694c7.55762 47.5488 1.84863 119.19 -57.4658 130.069
c-46.9238 8.60938 -88.5869 -39.1162 -113.731 -72.2773zM628.818 -141.698c-50.54 80.7363 -152.858 117.097 -244.875 104.076c3.47656 -18.6611 7.49316 -37.2148 12.1611 -55.6035c20.9092 -82.3818 55.7578 -187.638 144.137 -219.341
c44.8574 -16.0869 83.2363 -5.27148 102.949 40.8838c18.3135 42.8701 9.84277 91.3008 -14.3721 129.984z" />
    <glyph glyph-name="G" unicode="G" horiz-adv-x="1102" 
d="M89.1816 848.826c12.5986 27.9111 24.8926 55.9775 37.0107 84.0918c10.3447 24.002 22.2598 49.6162 13.3779 76.1016c-14.9326 44.5312 73.7617 74.124 78.5039 29.3682c5.43164 -51.2979 -25.7422 -101.336 -47.0625 -146.103
c-48.2061 -101.224 -97.1113 -203.585 -124.093 -312.916c-12.9727 -52.5742 -21.7578 -109.405 6.11035 -158.931c14.9756 -26.6074 37.5566 -36.3545 62.2734 -36.8301c14.2656 71.6416 38.6895 141.376 68.0957 208.253c44.2109 100.535 105.144 195.884 176.63 279.152
c35.751 41.6475 74.5781 85.6445 120.53 116.071c40.5957 26.8799 85.6025 57.125 134.434 65.6758c39.6396 6.94336 81.4473 -6.4248 91.0068 -49.5947c10.457 -47.2285 -13.2021 -98.415 -34.8057 -139.069c-49.5254 -93.1914 -111.537 -180.62 -181.395 -259.637
c-68.5439 -77.5322 -146.541 -153.825 -235.203 -208.077c-7.43457 -4.55078 -15.2158 -9.05859 -23.2588 -13.4219c-8.36328 -49.7334 -11.8184 -100.572 -6.05566 -150.797c4.11816 -35.9277 14.6182 -78.4248 42.791 -103.286
c76.9551 -67.9082 162.242 83.6787 189.806 137.252c45.8184 89.0576 73.8359 185.693 109.256 279.034c25.3262 66.7334 61.168 193.326 157.211 166.473c50.2783 -14.0518 75.6094 -46.2246 93.998 -93.6025c18.2598 -47.042 29.5498 -95.8037 37.0859 -145.606
c14.2168 -93.9287 13.8428 -190.068 0.640625 -284.568c87.5137 26.8535 175.38 52.7939 260.469 85.4902c26.4795 10.1738 41.4707 -19.2539 14.4414 -29.6094c-52.4785 -20.1084 -105.662 -38.0908 -159.278 -54.9141
c-39.6709 -12.4443 -80.3359 -24.4932 -121.294 -36.916c-17.0801 -97.6611 -47.7627 -193.021 -90.2168 -281.726c-44.291 -92.5508 -103.231 -189.277 -188.491 -249.5c-85.709 -60.5381 -203.024 -83.1455 -292.979 -18.6934
c-81.1211 58.124 -61.9795 169.564 -15.6426 244.191c52.1738 84.0264 136.334 145.322 220.782 193.934c79.5566 45.792 164.053 79.5352 250.359 108.824c9.86426 56.5322 15.2744 113.54 16.5293 169.64c1.13184 50.5557 -0.395508 101.592 -4.88672 151.966
c-4.67285 52.4092 -5.77344 108.818 -19.1943 159.817c-5.89648 22.3994 -22.8428 64.415 -53.3438 43.8369c-17.4961 -11.8027 -26.9336 -41.0645 -34.9824 -59.3301c-20.7383 -47.084 -37.7432 -95.6797 -54.6572 -144.238
c-32.333 -92.8496 -64.7832 -185.972 -116.883 -269.961c-46.5664 -75.0703 -132.782 -182.206 -233.536 -166.034c-105.993 17.0107 -132.237 130.406 -131.527 221.53c0.229492 29.2617 2.55273 58.3047 6.64355 87.0752
c-41.4336 -2.08301 -80.8115 10.7881 -110.229 50.4385c-29.625 39.9326 -29.0537 91.8662 -21.3682 139.03c9.31445 57.1729 27.9326 113.128 48.6123 167.086c19.3604 50.5078 41.5352 99.7549 63.7852 149.029zM565.018 -253.457
c81.7402 105.651 134.503 233.752 162.237 366.15c-135.501 -46.3154 -266.639 -105.396 -368.076 -205.754c-35.3613 -34.9824 -68.6289 -77.335 -81.7676 -126.155c-13.6729 -50.7803 -8.79102 -112.562 45.1299 -136.532
c92.4111 -41.0869 188.893 33.0322 242.477 102.291zM525.737 947.238c-71.4434 -78.5576 -134.22 -160.935 -184.306 -255.13c-43.917 -82.6006 -80.0957 -171.541 -100.999 -263.167c73.5049 44.8301 138.048 110.057 194.815 171.599
c72.2979 78.3809 135.33 165.147 186.959 258.478c13.9023 25.1338 27.2969 50.9248 34.3252 78.9424c5.13281 20.4717 11.0293 54.1348 -7.6582 70.1787c-34.4482 29.5771 -102.19 -37.8711 -123.137 -60.9004z" />
    <glyph glyph-name="H" unicode="H" horiz-adv-x="1161" 
d="M350.019 610.408c10.9326 -94.3721 11.791 -188.642 7.77441 -283.44c-0.923828 -21.6729 -2.05566 -43.335 -3.30566 -64.9863c95.8564 0.384766 192.119 6.33984 284.098 35.084c13.1602 4.1123 25.999 8.85449 38.5654 14.0723
c6.51074 91.0977 17.3369 182.302 32.5312 271.931c9.88574 58.3105 22.9648 115.729 41.6953 171.872c17 50.9512 37.626 107.366 81.207 142.012c39.0254 31.0195 84.4648 32.3604 118.395 -5.98145c33.5029 -37.8555 42.8711 -94.9268 44.9541 -143.656
c6.85254 -160.25 -72.8154 -315.224 -200.706 -408.218c-1.69336 -39.8691 -2.54785 -79.7168 -2.11035 -119.398c1.08398 -97.6562 9.13281 -200.407 51.624 -289.78c17.7529 -37.3428 47.3945 -69.7559 89.9443 -44.083c38.8916 23.4619 63.3203 65.0186 86.5898 102.602
c54.3848 87.8398 101.587 179.856 141.792 275.002c7.79199 18.4473 47.5166 18.6445 37.1982 -6.1416c-26.1914 -62.9092 -55.251 -124.579 -87.5469 -184.588c-28.8564 -53.6162 -58.7383 -108.643 -95.9854 -156.998
c-31.2754 -40.6055 -70.3916 -74.6797 -121.834 -85.4736c-54.8232 -11.5039 -119.82 6.84668 -157.189 49.4131c-37.1074 42.2666 -48.6172 102.057 -57.0186 155.924c-9.41016 60.3398 -11.0869 121.283 -8.70508 182.222
c0.748047 19.2266 1.76855 38.4912 2.90625 57.7656c-86.3926 -31.9971 -179.595 -43.5869 -271.36 -46.2256c-17.0264 -0.491211 -34.0527 -0.677734 -51.0791 -0.699219c-10.4355 -162.397 -27.8301 -324.384 -34.4795 -487.096
c-1.4043 -34.3145 -29.0752 -59.4961 -61.3389 -68.0146c-25.1709 -6.64941 -68.6982 -0.780273 -69.7881 33.0645c-3.30566 102.698 6.21191 205.204 17.8018 307.176c8.19824 72.1436 17.4648 144.319 25.8662 216.585
c-4.73242 0.0908203 -9.45898 0.186523 -14.1855 0.266602c-31.1738 0.539062 -62.46 1.32422 -93.6289 0.378906c-21.2725 -0.646484 -48.3398 -0.908203 -57.9961 -23.2432c-7.51465 -17.3838 -45.1621 -17.5654 -35.2012 5.81152
c15.6641 36.7715 57.7012 47.3779 94.1357 49.4238c36.7178 2.06152 73.7236 1.47363 110.66 0.597656c10.2334 91.4717 18.5967 183.114 21.1016 275.066c2.3877 87.7334 3.75 181.475 -13.3936 267.915c-7.88281 39.7246 -36.3496 71.9883 -78.9473 51.7998
c-17.833 -8.44922 -29.417 -24.2148 -42.7686 -38.0898c-14.2012 -14.7617 -30.5117 -24.8506 -48.2061 -34.998c-16.2041 -9.29297 -48.0088 -10.6494 -57.4082 9.48047c-10.1582 21.7529 10.9375 41.3594 27.873 51.0742c62.792 36.0186 171.21 105.454 229.014 24.3916
c52.0303 -72.9707 68.3838 -172.881 78.4561 -259.818zM808.176 529.715c-4.08008 -47.9336 -7.83398 -96.209 -10.6113 -144.538c84.4326 72.6133 140.377 175.669 152.212 291.483c4.65723 45.5674 3.10352 95.4609 -11.4443 139.165
c-4.8125 14.4473 -22.7041 65.1416 -45.0176 57.2373c-14.7891 -5.23926 -25.209 -36.4238 -30.4004 -49.4658c-36.2637 -91.0605 -46.4971 -196.952 -54.7383 -293.882z" />
    <glyph glyph-name="I" unicode="I" horiz-adv-x="636" 
d="M434.001 548.354c-17.582 -154.643 -49.0576 -307.507 -56.2305 -463.318c-3.35938 -72.9229 -6.07812 -151.801 7.32227 -223.869c3.27344 -17.625 9.77344 -32.4941 19.0127 -47.7744c6.57422 -10.8633 10.249 -23.3711 25.5879 -21.8975
c28.0654 2.70215 46.5654 46.876 57.3213 67.8701c68.0684 132.83 99.0234 280.604 160.453 416.292c8.46484 18.6982 49.5244 18.8213 38.1963 -6.30664c-37.1562 -82.4238 -62.9785 -169.046 -92.5986 -254.306c-25.1123 -72.2822 -50 -155.497 -97.8057 -216.569
c-19.6807 -25.1387 -44.3232 -45.1289 -76.208 -51.7197c-28.6641 -5.92871 -68.2178 1.62305 -91.1133 19.9902c-57.6533 46.251 -66.2412 127.725 -69.6328 196.273c-8.17676 165.275 24.8457 331.262 52.3506 493.387c13.6621 80.5391 27.1152 161.078 40.0938 241.724
c6.48926 40.3125 13.8809 81.6025 14.0195 122.54c0.0585938 17.8701 -4.01074 43.9434 -19.4727 56.0352c-20.6104 16.1133 -44.334 -10.2012 -57.4668 -23.3184c-50.2354 -50.1768 -86.6592 -112.396 -127.431 -170.013
c-34.6299 -48.9375 -94.8955 -136.98 -165.432 -116.146c-45.2422 13.3623 -2.24902 66.4121 31.6543 57.9951c24.8242 -6.16309 36.9902 0.320312 54.2734 18.6074c14.249 15.0771 27.1045 31.6602 39.6182 48.1738c23.3281 30.79 44.3975 63.2246 67.0371 94.5215
c34.3467 47.4746 90.0938 132.521 157.916 129.392c32.0498 -1.47949 45.7646 -26.9014 59.165 -52.4463c15.1514 -28.8828 28.498 -54.9082 34.3994 -87.4121c13.3467 -73.5 3.32227 -154.258 -5.03027 -227.704z" />
    <glyph glyph-name="I" unicode="&#xcf;" horiz-adv-x="636" 
d="M434.001 548.354c-17.582 -154.643 -49.0576 -307.507 -56.2305 -463.318c-3.35938 -72.9229 -6.07812 -151.801 7.32227 -223.869c3.27344 -17.625 9.77344 -32.4941 19.0127 -47.7744c6.57422 -10.8633 10.249 -23.3711 25.5879 -21.8975
c28.0654 2.70215 46.5654 46.876 57.3213 67.8701c68.0684 132.83 99.0234 280.604 160.453 416.292c8.46484 18.6982 49.5244 18.8213 38.1963 -6.30664c-37.1562 -82.4238 -62.9785 -169.046 -92.5986 -254.306c-25.1123 -72.2822 -50 -155.497 -97.8057 -216.569
c-19.6807 -25.1387 -44.3232 -45.1289 -76.208 -51.7197c-28.6641 -5.92871 -68.2178 1.62305 -91.1133 19.9902c-57.6533 46.251 -66.2412 127.725 -69.6328 196.273c-8.17676 165.275 24.8457 331.262 52.3506 493.387c13.6621 80.5391 27.1152 161.078 40.0938 241.724
c6.48926 40.3125 13.8809 81.6025 14.0195 122.54c0.0585938 17.8701 -4.01074 43.9434 -19.4727 56.0352c-20.6104 16.1133 -44.334 -10.2012 -57.4668 -23.3184c-50.2354 -50.1768 -86.6592 -112.396 -127.431 -170.013
c-34.6299 -48.9375 -94.8955 -136.98 -165.432 -116.146c-45.2422 13.3623 -2.24902 66.4121 31.6543 57.9951c24.8242 -6.16309 36.9902 0.320312 54.2734 18.6074c14.249 15.0771 27.1045 31.6602 39.6182 48.1738c23.3281 30.79 44.3975 63.2246 67.0371 94.5215
c34.3467 47.4746 90.0938 132.521 157.916 129.392c32.0498 -1.47949 45.7646 -26.9014 59.165 -52.4463c15.1514 -28.8828 28.498 -54.9082 34.3994 -87.4121c13.3467 -73.5 3.32227 -154.258 -5.03027 -227.704z" />
    <glyph glyph-name="I" unicode="&#xce;" horiz-adv-x="636" 
d="M434.001 548.354c-17.582 -154.643 -49.0576 -307.507 -56.2305 -463.318c-3.35938 -72.9229 -6.07812 -151.801 7.32227 -223.869c3.27344 -17.625 9.77344 -32.4941 19.0127 -47.7744c6.57422 -10.8633 10.249 -23.3711 25.5879 -21.8975
c28.0654 2.70215 46.5654 46.876 57.3213 67.8701c68.0684 132.83 99.0234 280.604 160.453 416.292c8.46484 18.6982 49.5244 18.8213 38.1963 -6.30664c-37.1562 -82.4238 -62.9785 -169.046 -92.5986 -254.306c-25.1123 -72.2822 -50 -155.497 -97.8057 -216.569
c-19.6807 -25.1387 -44.3232 -45.1289 -76.208 -51.7197c-28.6641 -5.92871 -68.2178 1.62305 -91.1133 19.9902c-57.6533 46.251 -66.2412 127.725 -69.6328 196.273c-8.17676 165.275 24.8457 331.262 52.3506 493.387c13.6621 80.5391 27.1152 161.078 40.0938 241.724
c6.48926 40.3125 13.8809 81.6025 14.0195 122.54c0.0585938 17.8701 -4.01074 43.9434 -19.4727 56.0352c-20.6104 16.1133 -44.334 -10.2012 -57.4668 -23.3184c-50.2354 -50.1768 -86.6592 -112.396 -127.431 -170.013
c-34.6299 -48.9375 -94.8955 -136.98 -165.432 -116.146c-45.2422 13.3623 -2.24902 66.4121 31.6543 57.9951c24.8242 -6.16309 36.9902 0.320312 54.2734 18.6074c14.249 15.0771 27.1045 31.6602 39.6182 48.1738c23.3281 30.79 44.3975 63.2246 67.0371 94.5215
c34.3467 47.4746 90.0938 132.521 157.916 129.392c32.0498 -1.47949 45.7646 -26.9014 59.165 -52.4463c15.1514 -28.8828 28.498 -54.9082 34.3994 -87.4121c13.3467 -73.5 3.32227 -154.258 -5.03027 -227.704z" />
    <glyph glyph-name="I" unicode="&#xcd;" horiz-adv-x="636" 
d="M434.001 548.354c-17.582 -154.643 -49.0576 -307.507 -56.2305 -463.318c-3.35938 -72.9229 -6.07812 -151.801 7.32227 -223.869c3.27344 -17.625 9.77344 -32.4941 19.0127 -47.7744c6.57422 -10.8633 10.249 -23.3711 25.5879 -21.8975
c28.0654 2.70215 46.5654 46.876 57.3213 67.8701c68.0684 132.83 99.0234 280.604 160.453 416.292c8.46484 18.6982 49.5244 18.8213 38.1963 -6.30664c-37.1562 -82.4238 -62.9785 -169.046 -92.5986 -254.306c-25.1123 -72.2822 -50 -155.497 -97.8057 -216.569
c-19.6807 -25.1387 -44.3232 -45.1289 -76.208 -51.7197c-28.6641 -5.92871 -68.2178 1.62305 -91.1133 19.9902c-57.6533 46.251 -66.2412 127.725 -69.6328 196.273c-8.17676 165.275 24.8457 331.262 52.3506 493.387c13.6621 80.5391 27.1152 161.078 40.0938 241.724
c6.48926 40.3125 13.8809 81.6025 14.0195 122.54c0.0585938 17.8701 -4.01074 43.9434 -19.4727 56.0352c-20.6104 16.1133 -44.334 -10.2012 -57.4668 -23.3184c-50.2354 -50.1768 -86.6592 -112.396 -127.431 -170.013
c-34.6299 -48.9375 -94.8955 -136.98 -165.432 -116.146c-45.2422 13.3623 -2.24902 66.4121 31.6543 57.9951c24.8242 -6.16309 36.9902 0.320312 54.2734 18.6074c14.249 15.0771 27.1045 31.6602 39.6182 48.1738c23.3281 30.79 44.3975 63.2246 67.0371 94.5215
c34.3467 47.4746 90.0938 132.521 157.916 129.392c32.0498 -1.47949 45.7646 -26.9014 59.165 -52.4463c15.1514 -28.8828 28.498 -54.9082 34.3994 -87.4121c13.3467 -73.5 3.32227 -154.258 -5.03027 -227.704z" />
    <glyph glyph-name="J" unicode="J" horiz-adv-x="946" 
d="M589.889 871.086c49.7012 -36.1943 75.708 -82.8066 95.4531 -140.524c40.2803 -117.732 50.0107 -245.201 55.5381 -368.781c3.0498 -68.2129 2.81445 -136.943 -2.69727 -205.172c75.0166 30.0156 148.922 62.3008 215.959 107.329
c20.3271 13.6562 48.4941 -5.81641 24.0654 -22.2715c-74.4883 -50.1768 -158.541 -84.3262 -243.107 -117.471c-4.48047 -42.165 -11.0605 -84.085 -20.3164 -125.503c-24.7275 -110.661 -69.9482 -230.124 -159.503 -304.596
c-73.0352 -60.7354 -194.196 -83.8877 -267.707 -10.1475c-78.168 78.4131 -8.19336 196.209 55.2549 258.947c76.9121 76.0469 170.317 122.527 267.396 162.749c10.6816 88.5186 11.6963 178.409 9.66699 267.365c-2.43555 106.634 -5.87988 213.732 -22.9385 319.218
c-4.44922 27.5156 -9.04199 55.5225 -15.8516 82.5625c-5.71973 22.6982 -9.24512 52.249 -27.9268 68.5439c-40.0342 34.918 -103.194 22.8643 -147.299 4.49707c-91.6855 -38.1865 -172.149 -101.373 -244.101 -168.806
c-35.7188 -33.4756 -69.9268 -68.6016 -103.408 -104.31c-19.0615 -20.3213 -81.2178 -97.4473 -21.6523 -107.317c33.4863 -5.54883 31.1045 -39.7676 10.7773 -58.8555c-17.8164 -16.7324 -62.3848 -30.5918 -76.5801 -1.20703
c-22.6504 46.8867 -6.12598 109.459 23.9531 148.66c38.4434 50.1016 87.4502 95.1777 133.392 138.337c45.8184 43.041 93.8857 83.8447 146.279 118.72c52.7031 35.084 111.687 69.9219 174.308 83.1348c49.0928 10.3555 99.7822 4.9502 141.045 -25.1025z
M605.438 70.3184c0.0800781 0.517578 0.150391 1.04297 0.225586 1.56152c-78.9473 -34.4375 -154.146 -74.958 -217.663 -134.689c-32.915 -30.9551 -64.249 -69.9854 -70.9678 -116.007c-5.39453 -36.9639 13.1377 -79.3701 47.5801 -96.1084
c68.335 -33.209 123.729 16.1289 156.511 73.2383c46.876 81.6602 70.29 179.652 84.3145 272.005z" />
    <glyph glyph-name="K" unicode="K" horiz-adv-x="990" 
d="M435.856 369.111c53.7227 83.9355 107.867 170.939 139.538 266.026c15.6484 46.9824 26.1484 96.4805 25.9668 146.171c-0.0800781 21.8223 -1.8584 45.3057 -13.501 64.3828c-8.95605 14.6709 -28.5938 28.418 -43.6758 15.2158
c-30.3467 -26.5547 -75.2676 10.7881 -37.6094 34.7998c35.9111 22.8955 67.7578 20.6523 100.924 -5.31445c33.1982 -25.9883 37.8125 -71.9248 36.3867 -111.057c-3.5625 -97.9014 -40.248 -190.403 -86.0986 -275.754
c-50.2832 -93.6074 -108.391 -183.835 -171.203 -270.537c20.9736 1.3457 42.3633 -1.47949 61.665 -7.84082c42.1387 -13.8857 72.1699 -43.8799 97.0527 -79.749c47.8271 -68.9443 75.2627 -147.608 137.862 -206.042c165.757 -154.728 277.801 225.456 317.889 325.691
c7.54688 18.8691 47.6777 19.0723 37.7012 -6.22656c-36.333 -92.1445 -63.7471 -189.496 -118.389 -273.165c-50.8818 -77.9219 -119.297 -126.288 -212.91 -136.174c-94.8896 -10.0195 -160.341 62.4707 -201.059 138.892
c-21.6191 40.5742 -39.1152 83.0391 -61.8779 122.999c-16.6523 29.2305 -46.4004 90.585 -87.0967 82.082c-2.78223 -3.71191 -5.54883 -7.43457 -8.34766 -11.1357c2.22754 -34.4375 3.49316 -68.8379 3.39746 -102.928c-0.277344 -98.7139 -4 -211.153 -56.0723 -298.347
c-25.6094 -42.876 -63.4434 -78.376 -110.021 -97.0684c-22.9121 -9.19727 -46.8711 -16.1084 -71.7803 -16.082c-22.5488 0.0214844 -35.1904 7.76074 -52.4199 20.8242c-30.875 23.4141 -49.7227 49.5518 -48.6973 90.0293
c1.04688 41.2949 24.5303 77.1738 48.2539 109.331c53.0605 71.9189 115.853 136.441 173.399 204.916c2.79297 85.1162 2.96875 170.168 0.303711 255.332c-2.92188 93.2021 -9.66699 188.562 -29.9248 279.798c-9.5498 43.0146 -27.4951 90.3818 -51.6357 127.5
c-11.8672 18.2441 -29.7744 41.6523 -52.291 45.8984c-16.9033 3.18359 -36.2637 3.16797 -52.7021 -2.10352c-41.332 -13.2559 -49.0332 37.0059 -14.0781 51.7891c23.8682 10.0996 47.2871 15.6914 72.6504 7.83008c20.9678 -6.5 37.2256 -21.5557 53.4668 -35.7832
c35.6768 -31.2539 55.3252 -80.4961 72.2607 -123.548c20.252 -51.4746 42.0156 -102.549 57.8301 -155.652c15.7236 -52.7881 26.1543 -107.397 34.9189 -161.724c7.80273 -48.377 14.3398 -97.6934 18.9912 -147.181c31.5322 43.7998 61.8516 88.4697 90.9316 133.903z
M177.021 -206.702c23.6221 35.377 33.2188 75.915 40.7764 117.215c7.66895 41.9199 12.4648 84.123 14.9639 126.593c-27.5479 -32.584 -56.0459 -64.3398 -83.7754 -96.7695c-29.7109 -34.7422 -66.0977 -72.4268 -81.4414 -116.227
c-7.19434 -20.5303 -9.17578 -43.832 1.90137 -63.4277c11.8193 -20.8936 24.2422 -21.2617 44.2812 -15.168c29.7695 9.05273 45.4502 21.0586 63.2939 47.7842z" />
    <glyph glyph-name="L" unicode="L" horiz-adv-x="736" 
d="M448.05 350.051c5.63965 -101.101 5.44043 -202.635 -5.76953 -303.367c-2.16309 -19.4619 -4.87598 -38.9824 -8.19238 -58.4336c132.312 51.7627 260.491 128.28 309.567 269.619c6.69238 19.2646 51.6299 26.6084 43.2979 2.61719
c-50.7324 -146.103 -183.307 -242.567 -322.771 -296.932c-12.4551 -4.85449 -25.0166 -9.46875 -37.6211 -13.9707c-13.5117 -61.5742 -34.4531 -121.514 -67.2939 -175.418c-44.9746 -73.8203 -132.975 -145.867 -224.099 -106.538
c-32.2588 13.9238 -58.6318 43.9707 -55.8281 80.6406c3.04395 39.8105 28.6846 74.9531 57.1348 101.192c47.3408 43.6611 107.563 70.7334 168.395 92.9248c11.0127 51.1807 17.2617 103.648 20.4766 155.251c5.40527 86.8838 3.08203 174.179 0.181641 261.116
c-2.84082 85.3506 -5.75195 171.412 -15.542 256.299c-4.98828 43.2607 -9.56543 86.5527 -16.4873 129.552c-2.99121 18.5752 -7.38086 36.958 -10.0723 55.4961c-2.50977 17.3037 -4.82812 32.9951 -16.9414 46.2188c-31.3613 34.2402 -66.3809 14.0518 -98.623 -7.60547
c-37.1768 -24.9678 -68.1211 -56.8789 -105.005 -81.7139c-13.4209 -9.03613 -37.791 -17.5703 -51.5596 -3.64648c-12.7539 12.8984 -3.99512 33.7324 9.54395 42.5234c27.3398 17.7529 57.0449 28.9043 84.9717 45.2148c22.0898 12.9033 42.8496 27.9053 64.8535 40.9209
c35.6172 21.0645 78.6582 31.8848 115.573 7.69141c15.6641 -10.2646 26.4688 -25.251 39.6602 -38.2021c15.1143 -14.8369 27.3232 -30.4961 36.4023 -49.6211c23.2432 -48.9531 41.3164 -100.684 52.4307 -153.766c20.5889 -98.3184 27.7295 -197.967 33.3164 -298.063z
M280.7 -144.581c5.3457 15.2959 10.1064 30.8428 14.3789 46.5713c-15.3818 -6.30176 -30.5928 -13.0098 -45.5254 -20.4072c-34.042 -16.8613 -73.959 -37.7061 -95.333 -70.2578c-17.6992 -26.9492 -5.05273 -59.624 25.876 -69.2324
c23.9854 -7.4502 36.7871 3.88281 52.4727 22.0469c22.1426 25.6406 37.0596 59.6084 48.1309 91.2793z" />
    <glyph glyph-name="M" unicode="M" horiz-adv-x="1299" 
d="M1089.5 426.894c0.608398 -66.9199 -2.62793 -133.774 -0.347656 -200.716c1.78418 -52.6602 2.98633 -118.721 26.2031 -167.418c7.80859 -16.3799 30.3311 -35.8789 46.5244 -32.0762c22.1377 5.20215 45.0928 47.3672 55.8916 64.1533
c34.5654 53.7285 64.2705 110.234 89.5801 168.876c8.13965 18.8633 48.6279 19.2373 38.1973 -6.30762c-26.998 -66.1191 -59.3682 -130.262 -98.3076 -190.19c-28.6904 -44.1523 -74.2314 -97.6777 -131.335 -99.1787c-65.2695 -1.71973 -115.82 60.9219 -130.577 118.72
c-17.2236 67.4648 -13.7842 142.241 -10.2324 211.143c3.50391 67.9883 9.25586 135.816 13.0586 203.783c1.94922 34.8594 3.74902 69.7129 5.92285 104.54c0.880859 14.126 8.54492 83.2246 -18.1963 62.3047c-21.0107 -16.4336 -34.1543 -52.1318 -43.2178 -76.2666
c-9.68848 -25.8066 -17.2988 -52.4355 -24.7656 -78.9473c-17.71 -62.8926 -32.2422 -126.624 -46.123 -190.457c-14.1104 -64.8799 -27.6387 -129.974 -44.4893 -194.213c-7.42383 -28.3008 -16.4014 -55.875 -28.4932 -82.542
c-9.91211 -21.8701 -20.8184 -48.3281 -39.7246 -64.0459c-50.5723 -42.0371 -107.602 0.865234 -133.856 47.5654c-28.6377 50.9297 -31.3721 117.021 -34.0908 173.965c-6.38184 133.813 5.79492 267.056 6.86816 400.741
c0.256836 31.5156 -2.47754 62.8447 -3.33789 94.3076c-0.640625 23.5479 -2.21094 66.8779 -22.4688 83.1035c-54.7432 43.8428 -102.309 -105.079 -111.768 -135.233c-38.502 -122.736 -59.625 -251.374 -79.2793 -378.233
c-17.9873 -116.087 -33.5186 -232.537 -47.0732 -349.217c0.822266 -17.7363 1.70312 -35.4727 2.70703 -53.209c3.14062 -55.4854 -108.711 -95.8193 -118.367 -31.5488c-26.415 175.861 -3.69531 357.042 7.33887 533.368
c5.55957 88.8438 11.9209 178.185 7.72266 267.205c-1.97656 41.8877 -2.5957 91.9521 -43.7246 115.831c-20.0332 11.6318 -39.0195 7.23145 -59.2129 -1.43164c-22.752 -9.7627 -33.7695 -25.9824 -53.1348 -40.1035
c-16.6846 -12.166 -48.7236 -20.9463 -63.4746 -0.763672c-15.1094 20.6689 6.62207 43.8369 24.375 53.0391c22.5918 11.7119 48.7666 14.6172 72.9814 22.2012c19.0342 5.96582 38.7734 12.5137 58.876 13.3525c37.8711 1.5752 68.3936 -20.8398 88.4053 -51.4854
c54.1719 -82.9639 63.7959 -175.904 69.8047 -272.481c5.70898 -91.7598 2.56348 -184.011 1.19043 -275.931c5.875 39.8799 12.0332 79.7109 18.5273 119.489c11.6006 71.043 24.6104 141.889 40.8145 212.04c15.707 68.0039 32.7812 137.012 63.2188 200.166
c20.792 43.1426 52.1055 88.9287 104.247 93.874c54.0703 5.12695 86.9639 -46.3047 109.961 -87.6475c29.4434 -52.9268 32.4551 -118.938 38.2021 -178.173c6.3125 -65.0557 5.21191 -130.576 6.8623 -195.873c1.70898 -67.502 5.30371 -134.571 9.57129 -201.939
c1.80566 -28.541 3.46094 -58.0059 8.74316 -86.1465c2.00293 -10.6602 5.12695 -20.8291 10.4355 -30.3574c-0.0644531 0.112305 2.1416 -3.00684 4.43848 -6.16309c1.12109 1.66113 2.24805 3.32715 3.36914 4.98828c31.9326 51.4795 41.8613 119.873 55.6406 177.997
c15.1035 63.7158 29.043 127.709 44.291 191.393c15.0127 62.7061 30.293 126.427 53.6807 186.634c15.6328 40.2432 42.3096 97.373 85.5537 114.479c23.457 9.28223 41.4238 -0.966797 54.7227 -20.6533c14.5322 -21.5234 28.8242 -41.0498 36.8945 -65.7773
c20.21 -61.9316 20.1943 -130.043 20.7764 -194.533z" />
    <glyph glyph-name="N" unicode="N" horiz-adv-x="945" 
d="M242.675 601.996c6.47266 -51.4053 8.87207 -103.688 7.84082 -155.509c-2.14746 -106.463 -7.71289 -213.386 -3.13086 -319.844c2.27539 -52.9062 6.37695 -105.78 13.3037 -158.291c2.54785 -19.3125 5.47949 -40.1357 11.4561 -58.6846
c2.25391 -6.99609 5.52246 -15.4609 9.71484 -22.3291c13.4912 28.4824 19.7881 63.3848 27.1748 91.9902c10.6279 41.1611 20.2783 82.5625 29.5127 124.055c18.4473 82.8887 34.459 166.29 53.0713 249.142c16.3857 72.9336 34.71 145.504 57.873 216.605
c20.1348 61.8037 40.3818 132.051 81.3242 183.739c16.3057 20.583 41.4766 44.9961 70.3545 38.1924c24.3271 -5.73047 37.0547 -30.8535 47.0264 -51.3887c30.0469 -61.8945 31.8682 -137.638 37.6631 -204.979c13.0371 -151.486 10.0889 -304.804 50.7002 -452.738
c6.19043 -22.5488 11.6221 -60.8525 32.4775 -74.9629c24.957 -16.8926 50.4375 13.6729 63.7305 32.04c44.7344 61.8145 78.3496 133.162 104.423 204.579c6.69238 18.3291 50.3535 26.2334 42.209 2.55273c-20.5244 -59.6836 -46 -117.604 -76.5762 -172.844
c-26.4053 -47.709 -57.2266 -99.2051 -108.851 -122.646c-54.4756 -24.7383 -116.621 -15.2158 -151.053 36.5947c-15.9209 23.959 -21.9561 53.2744 -28.8027 80.7578c-7.61621 30.5703 -13.9023 61.584 -18.3828 92.7744
c-16.8877 117.577 -17.2773 239.032 -9.68262 357.39c3.72266 58.0596 7.16211 116.002 14.4736 173.72c2.19531 17.3203 2.3291 82.3555 -29.9502 56.127c-17.9453 -14.5801 -29.4277 -43.7246 -38.3838 -64.3506c-92.4492 -212.878 -118.678 -448.588 -169.971 -673.05
c-11.0234 -48.2383 -17.3682 -103.345 -37.0547 -148.832c-5.49609 -12.7061 -14.6768 -35.8477 -35.4258 -47.9551c-25.8115 -15.0664 -56.04 -14.3242 -81.5479 0.774414c-94.6436 56.0303 -89.3457 204.039 -87.3965 298.773
c2.52637 122.961 17.9189 245.719 32.7285 367.681c7.31641 60.2705 16.3848 120.541 23.1143 180.828c4.86523 43.5967 -12.5889 108.786 -64.4375 98.5479c-13.8701 -12.9893 -28.1885 -23.8154 -44.334 -35.0039c-15.168 -10.5156 -43.2979 -19.9424 -58.8984 -4.16602
c-14.96 15.125 -4.07031 37.9248 10.8994 48.5801c36.6748 26.1055 79.6035 40.8037 125.128 33.1133c37.957 -6.41406 60.2012 -34.2979 70.7549 -69.7607c5.19141 -17.4482 6.41992 -35.4307 10.1641 -53.082c5.55957 -26.25 13.3896 -51.3994 16.7598 -78.1406z" />
    <glyph glyph-name="O" unicode="O" horiz-adv-x="752" 
d="M547.904 469.593c11.3438 -68.6289 13.4639 -140.271 6.58984 -210.903c34.3145 9.50684 68.2764 20.1621 103.034 28.3066c45.5459 10.6709 97.2549 11.3975 130.773 -26.1162c14.4893 -16.2197 -18.9971 -37.375 -32.7119 -24.7178
c-32.9258 30.3887 -75.3848 23.3975 -114.8 11.9365c-30.2393 -8.79102 -60.2227 -18.0947 -90.6279 -26.0947c-6.9375 -48.5742 -18.2012 -96.3213 -33.8232 -141.895c-41.6904 -121.646 -113.636 -253.521 -246.92 -290.239
c-61.3926 -16.9092 -124.403 -4.87598 -174.868 33.2627c-23.6592 17.8809 -48.0508 42.7686 -58.1396 71.1445c-10.3398 29.0703 -19.4775 58.8242 -24.7227 89.2822c-18.8525 109.465 -3.33789 228.147 48.0723 327.539
c-25.9082 28.1035 -46.4805 61.1631 -59.3301 99.0771c-38.5547 113.785 -15.4023 257.564 65.7559 347.963c40.5156 45.1299 97.2295 79.9727 157.335 90.4248c60.3398 10.4951 114.592 -10.2646 163.438 -44.8457c103.237 -73.083 141.402 -215.891 160.944 -334.125z
M199.76 807.936c-114.154 -34.9023 -167.632 -156.257 -168.951 -267.708c-0.817383 -68.2021 17.9717 -132.12 55.9824 -183.643c30.0527 44.3018 71.123 86.8145 122.912 103.927c49.3115 16.2949 113.369 -0.320312 120.905 -59.1172
c2.81445 -21.9609 -44.0244 -35.7832 -45.1621 -12.0381c-1.90625 39.8799 -43.8584 50.417 -75.9561 37.2041c-28.1514 -11.5898 -51.8379 -34.5449 -70.376 -58.1084c-10.1426 -12.8818 -19.2754 -26.5967 -27.5 -40.8994
c16.626 -16.8447 35.6982 -31.9053 57.4355 -44.6162c83.0762 -48.5908 178.986 -58.1348 272.733 -47.1436c2.45117 19.5635 4.19238 39.1426 5.22852 58.6367c5.75781 108.392 -5.84766 219.773 -29.8975 325.516c-23.457 103.125 -91.5146 226.465 -217.354 187.99z
M369.105 -6.50781c32.8828 63.9932 55.0039 134.487 67.3037 206.16c-48.4678 -6.11035 -97.4746 -7.42969 -146.044 -1.20215c-72.5176 9.29785 -144.794 37.7646 -200.776 84.374c-11.7119 -27.9434 -20.5293 -57.1357 -26.6816 -86.2695
c-12.8281 -60.7197 -14.2168 -126.064 2.4834 -186.292c14.3613 -51.8164 52.5322 -106.105 101.817 -130.593c91.5459 -45.4873 164.047 40.168 201.897 113.822z" />
    <glyph glyph-name="O" unicode="&#xd6;" horiz-adv-x="752" 
d="M547.904 469.593c11.3438 -68.6289 13.4639 -140.271 6.58984 -210.903c34.3145 9.50684 68.2764 20.1621 103.034 28.3066c45.5459 10.6709 97.2549 11.3975 130.773 -26.1162c14.4893 -16.2197 -18.9971 -37.375 -32.7119 -24.7178
c-32.9258 30.3887 -75.3848 23.3975 -114.8 11.9365c-30.2393 -8.79102 -60.2227 -18.0947 -90.6279 -26.0947c-6.9375 -48.5742 -18.2012 -96.3213 -33.8232 -141.895c-41.6904 -121.646 -113.636 -253.521 -246.92 -290.239
c-61.3926 -16.9092 -124.403 -4.87598 -174.868 33.2627c-23.6592 17.8809 -48.0508 42.7686 -58.1396 71.1445c-10.3398 29.0703 -19.4775 58.8242 -24.7227 89.2822c-18.8525 109.465 -3.33789 228.147 48.0723 327.539
c-25.9082 28.1035 -46.4805 61.1631 -59.3301 99.0771c-38.5547 113.785 -15.4023 257.564 65.7559 347.963c40.5156 45.1299 97.2295 79.9727 157.335 90.4248c60.3398 10.4951 114.592 -10.2646 163.438 -44.8457c103.237 -73.083 141.402 -215.891 160.944 -334.125z
M199.76 807.936c-114.154 -34.9023 -167.632 -156.257 -168.951 -267.708c-0.817383 -68.2021 17.9717 -132.12 55.9824 -183.643c30.0527 44.3018 71.123 86.8145 122.912 103.927c49.3115 16.2949 113.369 -0.320312 120.905 -59.1172
c2.81445 -21.9609 -44.0244 -35.7832 -45.1621 -12.0381c-1.90625 39.8799 -43.8584 50.417 -75.9561 37.2041c-28.1514 -11.5898 -51.8379 -34.5449 -70.376 -58.1084c-10.1426 -12.8818 -19.2754 -26.5967 -27.5 -40.8994
c16.626 -16.8447 35.6982 -31.9053 57.4355 -44.6162c83.0762 -48.5908 178.986 -58.1348 272.733 -47.1436c2.45117 19.5635 4.19238 39.1426 5.22852 58.6367c5.75781 108.392 -5.84766 219.773 -29.8975 325.516c-23.457 103.125 -91.5146 226.465 -217.354 187.99z
M369.105 -6.50781c32.8828 63.9932 55.0039 134.487 67.3037 206.16c-48.4678 -6.11035 -97.4746 -7.42969 -146.044 -1.20215c-72.5176 9.29785 -144.794 37.7646 -200.776 84.374c-11.7119 -27.9434 -20.5293 -57.1357 -26.6816 -86.2695
c-12.8281 -60.7197 -14.2168 -126.064 2.4834 -186.292c14.3613 -51.8164 52.5322 -106.105 101.817 -130.593c91.5459 -45.4873 164.047 40.168 201.897 113.822z" />
    <glyph glyph-name="O" unicode="&#xd5;" horiz-adv-x="752" 
d="M547.904 469.593c11.3438 -68.6289 13.4639 -140.271 6.58984 -210.903c34.3145 9.50684 68.2764 20.1621 103.034 28.3066c45.5459 10.6709 97.2549 11.3975 130.773 -26.1162c14.4893 -16.2197 -18.9971 -37.375 -32.7119 -24.7178
c-32.9258 30.3887 -75.3848 23.3975 -114.8 11.9365c-30.2393 -8.79102 -60.2227 -18.0947 -90.6279 -26.0947c-6.9375 -48.5742 -18.2012 -96.3213 -33.8232 -141.895c-41.6904 -121.646 -113.636 -253.521 -246.92 -290.239
c-61.3926 -16.9092 -124.403 -4.87598 -174.868 33.2627c-23.6592 17.8809 -48.0508 42.7686 -58.1396 71.1445c-10.3398 29.0703 -19.4775 58.8242 -24.7227 89.2822c-18.8525 109.465 -3.33789 228.147 48.0723 327.539
c-25.9082 28.1035 -46.4805 61.1631 -59.3301 99.0771c-38.5547 113.785 -15.4023 257.564 65.7559 347.963c40.5156 45.1299 97.2295 79.9727 157.335 90.4248c60.3398 10.4951 114.592 -10.2646 163.438 -44.8457c103.237 -73.083 141.402 -215.891 160.944 -334.125z
M199.76 807.936c-114.154 -34.9023 -167.632 -156.257 -168.951 -267.708c-0.817383 -68.2021 17.9717 -132.12 55.9824 -183.643c30.0527 44.3018 71.123 86.8145 122.912 103.927c49.3115 16.2949 113.369 -0.320312 120.905 -59.1172
c2.81445 -21.9609 -44.0244 -35.7832 -45.1621 -12.0381c-1.90625 39.8799 -43.8584 50.417 -75.9561 37.2041c-28.1514 -11.5898 -51.8379 -34.5449 -70.376 -58.1084c-10.1426 -12.8818 -19.2754 -26.5967 -27.5 -40.8994
c16.626 -16.8447 35.6982 -31.9053 57.4355 -44.6162c83.0762 -48.5908 178.986 -58.1348 272.733 -47.1436c2.45117 19.5635 4.19238 39.1426 5.22852 58.6367c5.75781 108.392 -5.84766 219.773 -29.8975 325.516c-23.457 103.125 -91.5146 226.465 -217.354 187.99z
M369.105 -6.50781c32.8828 63.9932 55.0039 134.487 67.3037 206.16c-48.4678 -6.11035 -97.4746 -7.42969 -146.044 -1.20215c-72.5176 9.29785 -144.794 37.7646 -200.776 84.374c-11.7119 -27.9434 -20.5293 -57.1357 -26.6816 -86.2695
c-12.8281 -60.7197 -14.2168 -126.064 2.4834 -186.292c14.3613 -51.8164 52.5322 -106.105 101.817 -130.593c91.5459 -45.4873 164.047 40.168 201.897 113.822z" />
    <glyph glyph-name="O" unicode="&#xd4;" horiz-adv-x="752" 
d="M547.904 469.593c11.3438 -68.6289 13.4639 -140.271 6.58984 -210.903c34.3145 9.50684 68.2764 20.1621 103.034 28.3066c45.5459 10.6709 97.2549 11.3975 130.773 -26.1162c14.4893 -16.2197 -18.9971 -37.375 -32.7119 -24.7178
c-32.9258 30.3887 -75.3848 23.3975 -114.8 11.9365c-30.2393 -8.79102 -60.2227 -18.0947 -90.6279 -26.0947c-6.9375 -48.5742 -18.2012 -96.3213 -33.8232 -141.895c-41.6904 -121.646 -113.636 -253.521 -246.92 -290.239
c-61.3926 -16.9092 -124.403 -4.87598 -174.868 33.2627c-23.6592 17.8809 -48.0508 42.7686 -58.1396 71.1445c-10.3398 29.0703 -19.4775 58.8242 -24.7227 89.2822c-18.8525 109.465 -3.33789 228.147 48.0723 327.539
c-25.9082 28.1035 -46.4805 61.1631 -59.3301 99.0771c-38.5547 113.785 -15.4023 257.564 65.7559 347.963c40.5156 45.1299 97.2295 79.9727 157.335 90.4248c60.3398 10.4951 114.592 -10.2646 163.438 -44.8457c103.237 -73.083 141.402 -215.891 160.944 -334.125z
M199.76 807.936c-114.154 -34.9023 -167.632 -156.257 -168.951 -267.708c-0.817383 -68.2021 17.9717 -132.12 55.9824 -183.643c30.0527 44.3018 71.123 86.8145 122.912 103.927c49.3115 16.2949 113.369 -0.320312 120.905 -59.1172
c2.81445 -21.9609 -44.0244 -35.7832 -45.1621 -12.0381c-1.90625 39.8799 -43.8584 50.417 -75.9561 37.2041c-28.1514 -11.5898 -51.8379 -34.5449 -70.376 -58.1084c-10.1426 -12.8818 -19.2754 -26.5967 -27.5 -40.8994
c16.626 -16.8447 35.6982 -31.9053 57.4355 -44.6162c83.0762 -48.5908 178.986 -58.1348 272.733 -47.1436c2.45117 19.5635 4.19238 39.1426 5.22852 58.6367c5.75781 108.392 -5.84766 219.773 -29.8975 325.516c-23.457 103.125 -91.5146 226.465 -217.354 187.99z
M369.105 -6.50781c32.8828 63.9932 55.0039 134.487 67.3037 206.16c-48.4678 -6.11035 -97.4746 -7.42969 -146.044 -1.20215c-72.5176 9.29785 -144.794 37.7646 -200.776 84.374c-11.7119 -27.9434 -20.5293 -57.1357 -26.6816 -86.2695
c-12.8281 -60.7197 -14.2168 -126.064 2.4834 -186.292c14.3613 -51.8164 52.5322 -106.105 101.817 -130.593c91.5459 -45.4873 164.047 40.168 201.897 113.822z" />
    <glyph glyph-name="O" unicode="&#xd3;" horiz-adv-x="752" 
d="M547.904 469.593c11.3438 -68.6289 13.4639 -140.271 6.58984 -210.903c34.3145 9.50684 68.2764 20.1621 103.034 28.3066c45.5459 10.6709 97.2549 11.3975 130.773 -26.1162c14.4893 -16.2197 -18.9971 -37.375 -32.7119 -24.7178
c-32.9258 30.3887 -75.3848 23.3975 -114.8 11.9365c-30.2393 -8.79102 -60.2227 -18.0947 -90.6279 -26.0947c-6.9375 -48.5742 -18.2012 -96.3213 -33.8232 -141.895c-41.6904 -121.646 -113.636 -253.521 -246.92 -290.239
c-61.3926 -16.9092 -124.403 -4.87598 -174.868 33.2627c-23.6592 17.8809 -48.0508 42.7686 -58.1396 71.1445c-10.3398 29.0703 -19.4775 58.8242 -24.7227 89.2822c-18.8525 109.465 -3.33789 228.147 48.0723 327.539
c-25.9082 28.1035 -46.4805 61.1631 -59.3301 99.0771c-38.5547 113.785 -15.4023 257.564 65.7559 347.963c40.5156 45.1299 97.2295 79.9727 157.335 90.4248c60.3398 10.4951 114.592 -10.2646 163.438 -44.8457c103.237 -73.083 141.402 -215.891 160.944 -334.125z
M199.76 807.936c-114.154 -34.9023 -167.632 -156.257 -168.951 -267.708c-0.817383 -68.2021 17.9717 -132.12 55.9824 -183.643c30.0527 44.3018 71.123 86.8145 122.912 103.927c49.3115 16.2949 113.369 -0.320312 120.905 -59.1172
c2.81445 -21.9609 -44.0244 -35.7832 -45.1621 -12.0381c-1.90625 39.8799 -43.8584 50.417 -75.9561 37.2041c-28.1514 -11.5898 -51.8379 -34.5449 -70.376 -58.1084c-10.1426 -12.8818 -19.2754 -26.5967 -27.5 -40.8994
c16.626 -16.8447 35.6982 -31.9053 57.4355 -44.6162c83.0762 -48.5908 178.986 -58.1348 272.733 -47.1436c2.45117 19.5635 4.19238 39.1426 5.22852 58.6367c5.75781 108.392 -5.84766 219.773 -29.8975 325.516c-23.457 103.125 -91.5146 226.465 -217.354 187.99z
M369.105 -6.50781c32.8828 63.9932 55.0039 134.487 67.3037 206.16c-48.4678 -6.11035 -97.4746 -7.42969 -146.044 -1.20215c-72.5176 9.29785 -144.794 37.7646 -200.776 84.374c-11.7119 -27.9434 -20.5293 -57.1357 -26.6816 -86.2695
c-12.8281 -60.7197 -14.2168 -126.064 2.4834 -186.292c14.3613 -51.8164 52.5322 -106.105 101.817 -130.593c91.5459 -45.4873 164.047 40.168 201.897 113.822z" />
    <glyph glyph-name="P" unicode="P" horiz-adv-x="1013" 
d="M-2.94824 679.619c-12.2627 23.9111 18.2705 44.9092 36.5684 51.0723c37.6631 12.7061 61.1836 46.4385 91.0596 70.4668c26.6504 21.4326 58.417 39.2285 92.6943 43.9443c66.5088 9.1543 110.212 -41.1982 136.959 -95.9521
c35.5479 -72.7793 43.4785 -157.121 49.5186 -236.992c6.69727 -88.5664 5.57031 -177.068 5.64551 -265.821c0.0693359 -82.3174 0.352539 -164.256 3.42871 -246.53c2.78223 -74.3809 4.19727 -153.745 21.7148 -226.428
c4.79102 -19.8779 12.498 -39.1523 18.2393 -58.7588c4.59277 -15.6914 7.57812 -18.5059 15.6641 -1.50586c15.3652 32.3008 18.9434 74.3916 24.9629 109.39c13.8115 80.293 20.8184 161.382 25.4219 242.663c8.87598 156.709 9.86914 314.865 36.7871 469.919
c19.1201 110.111 54.957 300.708 194.047 316.955c65.665 7.6748 115.494 -44.4941 152.318 -92.0322c37.9463 -48.9854 54.2627 -119.067 56.8525 -180.049c4.59863 -108.247 -30.8271 -227.475 -97.1113 -317.761c54.8389 -10.6494 111.088 -15.8037 163.358 6.15234
c25.9824 10.917 40.5518 -18.1475 14.2588 -29.2354c-66.0811 -27.8682 -135.863 -24.0283 -204.834 -10.4092c-9.00488 -9.98145 -18.4424 -19.4717 -28.3125 -28.375c-52.4414 -47.293 -135.09 -84.4805 -205.311 -56.959
c-16.6045 6.51074 -28.1943 16.6689 -35.3828 28.6533c-1.15332 -25.1445 -2.32324 -50.2783 -3.66406 -75.3799c-3.67969 -68.9385 -8.44922 -137.941 -16.6631 -206.506c-4.40625 -36.793 -9.96582 -73.4629 -17.0371 -109.845
c-5.18555 -26.667 -9.39941 -55.6357 -21.0107 -80.4707c-23.9531 -51.2451 -74.3965 -54.2256 -117.753 -25.2949c-52.6172 35.1045 -67.7422 114.335 -80.0312 172.133c-30.1543 141.819 -23.2002 290.704 -18.8955 434.648
c4.25684 142.241 5.50098 284.364 4.57129 426.482c-0.175781 27.0459 -2.97461 58.5137 -21.9609 79.1768c-22.7197 24.7275 -54.2568 27.8301 -84.2451 14.6221c-57.4883 -25.3203 -84.5557 -84.3789 -129.104 -124.611
c-15.4297 -13.9346 -51.4482 -19.4092 -62.7549 2.6377zM614.424 231.003c2.21094 -26.4365 60.1523 -12.748 75.2559 -7.58398c16.167 5.52246 30.4639 14.9111 43.25 26.127c-58.9404 9.50684 -121.112 12.6895 -118.506 -18.543zM651.632 730.702
c-29.2246 -63.5498 -44.7754 -134.357 -56.167 -203.04c-15.3389 -92.46 -21.6406 -185.939 -26.2871 -279.51c7.01758 11.2686 16.7754 21.3037 28.9688 28.7812c47.9072 29.3799 111.361 18.4736 166.217 6.50488c38.7637 49.2529 66.1035 110.127 82.0029 170.131
c15.5469 58.6689 23.4463 117.983 17.5879 178.644c-3.0332 31.377 -11.3223 60.2549 -20.6045 90.1309c-8.59863 27.6816 -17.3203 57.7607 -40.7715 76.6992c-63.4697 51.2559 -124.504 -10.8311 -150.946 -68.3408z" />
    <glyph glyph-name="Q" unicode="Q" horiz-adv-x="752" 
d="M483.368 681.659c59.085 -130.24 76.6045 -280.839 67.7705 -423.673c13.8916 1.67188 27.751 3.58398 41.541 5.96582c63.4912 10.9648 127.869 25.9297 191.547 8.35352c24.4023 -6.73438 1.13281 -34.458 -16.8496 -30.8691
c-72.6826 14.4951 -146.001 -5.65527 -218.78 -16.9512c-0.186523 -2.08301 -0.320312 -4.1875 -0.523438 -6.27051c-11.7607 -121.78 -57.4189 -246.344 -140.517 -337.922c5.11621 -15.6328 10.3447 -31.2441 15.9102 -46.7588
c11.8994 -33.1826 26.501 -63.5127 49.3271 -90.7021c10.3613 -12.3369 21.8818 -23.6758 34.4697 -33.7324c6.10449 -4.87598 31.5742 -25.4004 38.7686 -22.4307c17.918 7.3916 48.4297 11.3223 55.3564 -13.1064c6.63281 -23.3877 -19.1523 -42.8389 -38.668 -48.292
c-113.951 -31.8525 -165.351 112.573 -194.848 216.377c-5.19629 -4.4541 -10.4619 -8.83398 -15.8877 -13.0527c-59.5654 -46.2988 -133.038 -76.3301 -209.385 -64.7939c-56.7246 8.57227 -109.017 61.2266 -135.362 110.041
c-58.1289 107.702 -28.4023 293.032 84.1064 356.16c52.1797 29.2783 114.362 26.1162 159.514 -14.2656c50.1396 -44.8408 77.335 -117.78 102.41 -178.286c5.53809 -13.373 10.6328 -26.8848 15.5459 -40.4453c36.2002 67.8496 56.3887 142.994 66.0283 219.512
c-64.4316 0.261719 -129.547 8.1123 -190.49 27.248c-149.905 47.0576 -251.583 190.842 -253.084 347.438c-1.14258 119.548 63.2988 251.305 186.057 285.353c133.183 36.9365 255.514 -83.5088 306.043 -194.896zM71.5957 -122.624
c86.8623 -94.0352 207.174 -13.8066 265.954 68.6387c-18.3828 56.6768 -40.2422 112.253 -66.166 165.901c-27.6494 57.2207 -73.543 127.083 -147.737 100.876c-61.6807 -21.79 -89.5059 -92.9561 -99.0605 -152.532c-10.2334 -63.8115 2.1416 -134.31 47.0098 -182.884z
M369.494 257.323c22.9492 -2.74023 46.0068 -4.23535 69.084 -4.80176c1.59668 18.8848 2.69141 37.791 3.21484 56.6328c3.78711 136.04 -9.41504 274.911 -58.0479 402.882c-22.2285 58.4922 -56.2969 104.775 -117.166 126.331
c-58.001 20.541 -116.173 2.2168 -158.456 -40.6426c-87.8828 -89.0791 -88.2568 -234.946 -37.3643 -342.611c24.6953 -52.249 61.9209 -99.2314 108.983 -133.07c55.3516 -39.7998 123.003 -56.751 189.752 -64.7197z" />
    <glyph glyph-name="R" unicode="R" horiz-adv-x="1109" 
d="M356.184 825.486c52.6543 -138.054 30.1055 -288.837 31.2217 -433.188c1.06836 -136.308 3.65332 -272.075 14.5107 -408.02c4.625 -57.9424 11.8027 -115.676 29.999 -171.065c4.16602 -12.6895 8.4707 -25.2295 13.251 -37.6631
c3.00195 8.1709 6.33496 16.4756 7.69141 23.835c2.74512 14.9111 4.01074 29.9561 5.51172 45.0273c14.0518 141.253 10.7676 284.354 15.7451 426.567c-2.05078 0.560547 -4.06445 1.11035 -6.16895 1.6709c-38.5068 10.334 -18.7832 45.6582 8.86621 58.4062
c5.02051 91.0654 14.8955 181.607 36.4619 270.9c24.5996 101.864 61.5684 232.334 169.34 274.542c102.025 39.9541 191.451 -36.8516 206.784 -137.061c18.2764 -119.425 -40.4668 -239.87 -109.881 -333.211c-35.623 -47.9014 -80.4375 -90.8037 -133.866 -118.287
c-8.17188 -4.20312 -16.6211 -7.92578 -25.2412 -11.2529c31.1582 -27.6924 56.457 -62.5732 74.7705 -100.407c21.6143 -44.6543 35.3135 -92.9453 54.0332 -138.817c19.2051 -47.0732 40.8623 -93.4424 66.1611 -137.562
c17.9023 -31.2275 40.0186 -71.0273 82.334 -64.3457c47.7568 7.54102 75.54 63.1973 95.584 101.421c47.9229 91.375 77.6123 190.366 106.965 288.851c5.7041 19.1416 49.2852 26.6191 42.209 2.55371c-27.9805 -95.1357 -56.126 -191.126 -99.1885 -280.766
c-32.6748 -68.0098 -73.6602 -143.55 -150.183 -168.192c-36.5098 -11.7549 -75.8125 -9.00391 -108.359 11.873c-32.8027 21.0371 -51.8213 52.2646 -70.1826 85.7783c-42.8701 78.2529 -66.9727 161.671 -100.657 243.657
c-20.4072 49.6689 -47.127 105.533 -92.8018 133.898c-0.0800781 -3.57324 -0.170898 -7.14648 -0.240234 -10.7197c-2.37109 -120.344 0.694336 -240.714 0.662109 -361.063c-0.015625 -52.7725 -2.9209 -110.479 -31.5312 -156.672
c-33.3799 -53.8994 -96.0752 -43.4365 -130.902 1.31934c-69.873 89.7891 -76.7676 211.762 -82.0391 320.954c-6.23828 129.258 -7.54688 258.697 -0.994141 387.955c3.30566 65.2061 10.3447 130.091 13.9766 195.248c3.35449 60.1855 7.09277 118.17 -4.14453 177.805
c-5.36719 28.4609 -6.72949 64.4688 -44.542 66.3379c-27.6328 1.3623 -52.7822 -21.2773 -73.0127 -37.374c-40.4346 -32.1729 -84.8486 -60.9326 -138.593 -54.8066c-46.4434 5.29297 0.256836 76.8223 39.4102 55.6885c31.8154 -17.1758 62.2041 16.1777 86.1201 34.1865
c23.4033 17.625 49.8242 33.498 79.0752 38.5234c55.4961 9.53906 103.28 -37.8496 121.845 -86.5254zM743.865 848.486c-122.149 22.1162 -166.014 -163.791 -185.822 -248.438c-20.541 -87.7598 -29.8877 -177.404 -34.2617 -267.284
c47.6982 -0.790039 100.006 27.3184 133.258 56.3613c44.7295 39.0625 80.3848 92.8496 108.75 144.549c29.5029 53.7764 52.2549 115.382 52.2549 177.441c0 52.0244 -12.9355 126.282 -74.1787 137.37z" />
    <glyph glyph-name="S" unicode="S" horiz-adv-x="666" 
d="M47.9854 -42.2832c59.876 101.684 184.296 153.197 291.304 187.864c1.19629 0.389648 2.39258 0.74707 3.58887 1.13184c-52.8252 48.9961 -106.842 96.8389 -156.147 149.424c-8.54492 9.11719 -17.0635 18.4102 -25.5068 27.8691
c-35.8369 -43.0469 -64.5381 -90.7129 -53.0234 -148.885c8.05371 -40.6699 -82.04 -54.7324 -71.166 -11.7021c15.5947 61.7236 46.416 122.165 86.29 171.615c4.54492 5.63477 9.26074 11.1035 14.0303 16.5195c-63.3154 75.3799 -117.957 161.132 -134.3 258.548
c-9.97656 59.4805 -2.46777 126.545 31.7188 177.304c31.5322 46.8174 70.0557 87.835 124.195 107.569c46.208 16.8447 100.545 18.5859 144.12 -6.63281c46.8066 -27.0889 77.2061 -77.6074 91.5518 -128.537c32.1357 -114.073 -18.5693 -217.225 -96.7744 -298.426
c-16.2578 -16.877 -33.2842 -32.9844 -50.3428 -49.0547c13.9658 -17.0635 28.1885 -33.5508 42.2939 -49.4023c39.5107 -44.3975 81.2334 -86.7656 121.23 -130.726c15.5254 -17.0635 31.5693 -34.2559 47.0146 -52.0137c20.0488 5.5166 40.1035 11.0283 60.083 16.7754
c57.6963 16.5938 118.314 34.4209 157.18 83.2676c13.2988 16.7168 48.3447 7.91016 30.9873 -14.1416c-38.0742 -48.3604 -94.7451 -73.0664 -151.955 -91.3643c-24.3809 -7.79785 -48.9697 -14.9014 -73.6064 -21.834c15.7764 -20.0225 30.1807 -40.958 41.7061 -63.416
c53.6904 -104.6 34.5654 -227.314 -54.1719 -306.491c-83.8984 -74.8672 -222.433 -120.942 -331.251 -79.8828c-46.0752 17.3838 -88.1396 53.2422 -106.464 99.6641c-20.1191 50.9619 -9.86523 108.626 17.415 154.957zM138.411 833.82
c-36.3389 -38.8545 -36.6738 -106.73 -28.4814 -156.522c14.2383 -86.4883 61.3545 -166.718 116.044 -237.836c12.9141 12.2305 25.7158 24.5732 38.0693 37.3535c47.7627 49.4072 87.9521 106.02 95.6162 176.149c7.31641 66.9414 -14.4473 147.619 -69.1367 190.703
c-45.4131 35.7783 -112.066 32.9639 -152.111 -9.84766zM447.11 43.3154c-24.5625 27.0352 -50.4863 52.7295 -76.9717 77.8789c-6.41406 -1.97656 -12.8281 -3.94727 -19.2158 -6.00879c-112.92 -36.4346 -303.981 -111.724 -286.507 -261.64
c6.5 -55.7949 50.3105 -98.9053 101.182 -118.121c63.2881 -23.9111 135.869 -8.4873 195.622 18.3291c57.0234 25.5879 109.982 66.1455 133.033 126.187c23.1152 60.2012 -6.52051 118.656 -47.1426 163.375z" />
    <glyph glyph-name="T" unicode="T" horiz-adv-x="934" 
d="M1049.12 1007.69c68.084 -6.78809 148.175 -43.5215 160.955 -118.64c6.88965 -40.542 -83.7061 -51.5068 -63.4912 -3.93652c21.0322 49.5039 -58.7373 77.7568 -93.8799 84.3418c-47.9707 8.98828 -98.9697 4.33105 -146.668 -4.27246
c-95.5576 -17.2402 -181.234 -55.9238 -265.229 -99.125c15.5527 -2.82031 27.5215 -12.8398 29.7754 -32.75c11.958 -105.662 20.3916 -211.981 30.3418 -317.868c9.66113 -102.831 17.373 -205.599 15.4072 -308.964
c-0.144531 -7.55762 -0.347656 -15.2158 -0.587891 -22.9229c5.0791 1.16992 10.1689 2.32324 15.2432 3.50879c39.6123 9.26074 79.1338 19.1201 117.945 31.3613c36.4883 11.5098 76.1113 26.0791 98.6709 58.9834c5.7627 8.40625 17.0527 16.4277 28.001 13.6562
c8.78027 -2.22168 15.7285 -10.9912 9.69922 -19.8838c-41.5137 -61.2158 -115.318 -81.7139 -183.119 -100.284c-29.123 -7.97949 -58.4814 -15.04 -87.8828 -21.9189c-7.6748 -145.307 -37.7754 -307.704 -146.156 -408.041
c-49.4346 -45.7598 -119.175 -77.3291 -187.297 -61.7021c-68.6182 15.7393 -132.227 71.5186 -153.344 139.245c-48.7188 156.276 144.628 263.3 263.386 305.732c38.0908 13.6133 77.0195 24.4014 116.248 34.0947c-1.45312 48.3926 -5.00977 96.4814 -8.77539 143.224
c-13.3896 166.259 -45.3545 332.779 -48.377 499.631c-0.117188 6.69238 1.44727 13.1758 4.24023 19.3174c-39.6445 -20.9678 -79.5459 -41.6475 -120.563 -60.2441c-73.4521 -33.3047 -153.644 -58.9883 -235.096 -58.1875
c-32.7119 0.320312 -65.873 4.69434 -96.6729 16.0811c-15.1143 5.58691 -29.2402 13.3682 -43.2334 21.2568c-14.9062 8.40625 -29.8818 12.5508 -42.3789 24.8027c-39.3184 38.5342 63.7051 91.0498 76.8809 47.0947c6.52148 -21.7422 7.18359 -37.2354 27.8955 -50.0801
c17.1064 -10.6064 38.2881 -16.7373 58.0225 -19.8613c46.4697 -7.37012 95.9785 0.246094 141.033 12.0283c88.4541 23.1367 168.256 68.6504 247.839 112.279c76.8916 42.1494 155.241 81.3828 238.883 108.429c76.9287 24.8721 161.185 41.6953 242.284 33.6143z
M563.517 -160.032c35.3027 89.2334 44.9307 186.557 44.2627 283.642c-17.3574 -4.39551 -34.6719 -8.97266 -51.8799 -13.9717c-70.3438 -20.4443 -141.264 -47.3086 -199.927 -92.2031c-57.3438 -43.8848 -109.214 -114.26 -80.2666 -189.073
c24.1885 -62.5137 93.1162 -120.482 162.958 -115.302c64.9336 4.8125 103.286 72.3945 124.853 126.908z" />
    <glyph glyph-name="U" unicode="U" horiz-adv-x="1052" 
d="M377.331 722.64c0.31543 -77.1104 -11.4268 -155.433 -23.3203 -231.501c-21.0156 -134.374 -47.1426 -270.115 -39.4141 -406.652c3.25293 -57.4512 13.5762 -117.38 41.2627 -168.534c12.5664 -23.2217 32.2842 -45.3271 61.5254 -35.5215
c27.0986 9.08496 47.6768 40.4404 62.7539 63.0371c75.54 113.235 112.995 253.1 149.227 382.832c3.90918 13.998 7.85059 28.0225 11.7979 42.0635c-0.629883 67.9189 2.21094 135.811 3.00098 203.74c0.929688 79.9092 -1.45801 160.267 1.35645 240.111
c1.34082 37.9512 4.73242 77.9111 12.5615 115.131c4.74219 22.5537 17.4531 44.8252 39.8633 53.4775c66.6797 25.7529 76.79 -82.6807 78.542 -123.217c3.89844 -90.2969 -12.2412 -181.518 -34.2617 -271.179c4.20898 -79.4229 4.59375 -159.182 9.49121 -238.599
c4.1123 -66.6582 11.8516 -133.37 27.4785 -198.389c8.21387 -34.1914 18.4199 -67.8066 31.5801 -100.438c9.53906 -23.6543 19.1201 -50.2832 34.4482 -70.9736c13.8164 -18.6504 33.3633 -39.9658 55.2021 -22.6719c24.5352 19.4248 42.3838 49.082 58.833 75.2256
c35.7783 56.8633 64.1543 117.348 85.918 180.882c5.9707 17.4434 46.7959 24.6162 39.4795 2.3877c-25.6465 -77.9219 -60.751 -151.758 -103.69 -221.578c-18.4199 -29.9512 -34.4473 -64.3086 -62.7852 -86.3076c-31.0352 -24.0918 -72.4746 -31.2646 -110.341 -21.4639
c-80.3311 20.7861 -110.058 114.746 -130.251 185.527c-15.75 55.1973 -24.9258 111.853 -30.208 168.913c-27.5312 -93.2871 -60.0303 -185.667 -106.409 -269.427c-29.9619 -54.1074 -71.2354 -115.505 -135.073 -131.832
c-56.2969 -14.4043 -117.497 15.6914 -151.945 59.8594c-45.0654 57.7871 -58.5508 143.293 -58.2627 214.442c0.30957 77.3027 10.9111 154.733 23.9902 230.791c13.4004 77.9277 29.1074 155.401 44.1045 233.024c15.8037 81.8203 27.249 165.312 49.7285 245.451
c6.35547 22.6445 8.84961 88.5342 -31.4043 80.0908c-29.5938 -6.21094 -56.1748 -40.8516 -74.499 -62.749c-42.2559 -50.4863 -82.8135 -109.277 -143.715 -138.77c-23.5957 -11.4297 -67.7373 -10.415 -65.6436 25.3311c1.90625 32.6006 42.2988 51.6836 71.1016 48.0039
c32.5195 -4.15527 56.5371 26.5967 75.8818 48.5576c21.374 24.2627 40.9375 49.9678 64.9443 71.7852c33.332 30.2979 101.454 72.2656 136.26 21.0791c15.5098 -22.8047 12.6631 -49.4336 18.0254 -75.0371c4.19824 -20.0488 8.64746 -37.1768 10.7568 -57.7549
c2.00781 -19.6064 2.0293 -39.3516 2.10938 -59.1494zM700.531 915.912c-0.822266 -17.3096 1.77344 -34.7949 4.27246 -51.9072c4.61426 -31.4463 10.8311 -62.7061 16.8555 -93.9072c1.75195 -9.0791 3.35449 -18.1689 4.84473 -27.2695
c4.29395 34.1064 7.15625 68.5762 5.59668 102.938c-1.27148 28.0498 -2.37695 70.29 -19.793 93.7891c-6.46777 8.72656 -4.80176 7.42383 -8.88184 -3.09766c-2.46191 -6.35547 -2.57422 -13.8701 -2.89453 -20.5459z" />
    <glyph glyph-name="U" unicode="&#xdc;" horiz-adv-x="1052" 
d="M377.331 722.64c0.31543 -77.1104 -11.4268 -155.433 -23.3203 -231.501c-21.0156 -134.374 -47.1426 -270.115 -39.4141 -406.652c3.25293 -57.4512 13.5762 -117.38 41.2627 -168.534c12.5664 -23.2217 32.2842 -45.3271 61.5254 -35.5215
c27.0986 9.08496 47.6768 40.4404 62.7539 63.0371c75.54 113.235 112.995 253.1 149.227 382.832c3.90918 13.998 7.85059 28.0225 11.7979 42.0635c-0.629883 67.9189 2.21094 135.811 3.00098 203.74c0.929688 79.9092 -1.45801 160.267 1.35645 240.111
c1.34082 37.9512 4.73242 77.9111 12.5615 115.131c4.74219 22.5537 17.4531 44.8252 39.8633 53.4775c66.6797 25.7529 76.79 -82.6807 78.542 -123.217c3.89844 -90.2969 -12.2412 -181.518 -34.2617 -271.179c4.20898 -79.4229 4.59375 -159.182 9.49121 -238.599
c4.1123 -66.6582 11.8516 -133.37 27.4785 -198.389c8.21387 -34.1914 18.4199 -67.8066 31.5801 -100.438c9.53906 -23.6543 19.1201 -50.2832 34.4482 -70.9736c13.8164 -18.6504 33.3633 -39.9658 55.2021 -22.6719c24.5352 19.4248 42.3838 49.082 58.833 75.2256
c35.7783 56.8633 64.1543 117.348 85.918 180.882c5.9707 17.4434 46.7959 24.6162 39.4795 2.3877c-25.6465 -77.9219 -60.751 -151.758 -103.69 -221.578c-18.4199 -29.9512 -34.4473 -64.3086 -62.7852 -86.3076c-31.0352 -24.0918 -72.4746 -31.2646 -110.341 -21.4639
c-80.3311 20.7861 -110.058 114.746 -130.251 185.527c-15.75 55.1973 -24.9258 111.853 -30.208 168.913c-27.5312 -93.2871 -60.0303 -185.667 -106.409 -269.427c-29.9619 -54.1074 -71.2354 -115.505 -135.073 -131.832
c-56.2969 -14.4043 -117.497 15.6914 -151.945 59.8594c-45.0654 57.7871 -58.5508 143.293 -58.2627 214.442c0.30957 77.3027 10.9111 154.733 23.9902 230.791c13.4004 77.9277 29.1074 155.401 44.1045 233.024c15.8037 81.8203 27.249 165.312 49.7285 245.451
c6.35547 22.6445 8.84961 88.5342 -31.4043 80.0908c-29.5938 -6.21094 -56.1748 -40.8516 -74.499 -62.749c-42.2559 -50.4863 -82.8135 -109.277 -143.715 -138.77c-23.5957 -11.4297 -67.7373 -10.415 -65.6436 25.3311c1.90625 32.6006 42.2988 51.6836 71.1016 48.0039
c32.5195 -4.15527 56.5371 26.5967 75.8818 48.5576c21.374 24.2627 40.9375 49.9678 64.9443 71.7852c33.332 30.2979 101.454 72.2656 136.26 21.0791c15.5098 -22.8047 12.6631 -49.4336 18.0254 -75.0371c4.19824 -20.0488 8.64746 -37.1768 10.7568 -57.7549
c2.00781 -19.6064 2.0293 -39.3516 2.10938 -59.1494zM700.531 915.912c-0.822266 -17.3096 1.77344 -34.7949 4.27246 -51.9072c4.61426 -31.4463 10.8311 -62.7061 16.8555 -93.9072c1.75195 -9.0791 3.35449 -18.1689 4.84473 -27.2695
c4.29395 34.1064 7.15625 68.5762 5.59668 102.938c-1.27148 28.0498 -2.37695 70.29 -19.793 93.7891c-6.46777 8.72656 -4.80176 7.42383 -8.88184 -3.09766c-2.46191 -6.35547 -2.57422 -13.8701 -2.89453 -20.5459z" />
    <glyph glyph-name="U" unicode="&#xdb;" horiz-adv-x="1052" 
d="M377.331 722.64c0.31543 -77.1104 -11.4268 -155.433 -23.3203 -231.501c-21.0156 -134.374 -47.1426 -270.115 -39.4141 -406.652c3.25293 -57.4512 13.5762 -117.38 41.2627 -168.534c12.5664 -23.2217 32.2842 -45.3271 61.5254 -35.5215
c27.0986 9.08496 47.6768 40.4404 62.7539 63.0371c75.54 113.235 112.995 253.1 149.227 382.832c3.90918 13.998 7.85059 28.0225 11.7979 42.0635c-0.629883 67.9189 2.21094 135.811 3.00098 203.74c0.929688 79.9092 -1.45801 160.267 1.35645 240.111
c1.34082 37.9512 4.73242 77.9111 12.5615 115.131c4.74219 22.5537 17.4531 44.8252 39.8633 53.4775c66.6797 25.7529 76.79 -82.6807 78.542 -123.217c3.89844 -90.2969 -12.2412 -181.518 -34.2617 -271.179c4.20898 -79.4229 4.59375 -159.182 9.49121 -238.599
c4.1123 -66.6582 11.8516 -133.37 27.4785 -198.389c8.21387 -34.1914 18.4199 -67.8066 31.5801 -100.438c9.53906 -23.6543 19.1201 -50.2832 34.4482 -70.9736c13.8164 -18.6504 33.3633 -39.9658 55.2021 -22.6719c24.5352 19.4248 42.3838 49.082 58.833 75.2256
c35.7783 56.8633 64.1543 117.348 85.918 180.882c5.9707 17.4434 46.7959 24.6162 39.4795 2.3877c-25.6465 -77.9219 -60.751 -151.758 -103.69 -221.578c-18.4199 -29.9512 -34.4473 -64.3086 -62.7852 -86.3076c-31.0352 -24.0918 -72.4746 -31.2646 -110.341 -21.4639
c-80.3311 20.7861 -110.058 114.746 -130.251 185.527c-15.75 55.1973 -24.9258 111.853 -30.208 168.913c-27.5312 -93.2871 -60.0303 -185.667 -106.409 -269.427c-29.9619 -54.1074 -71.2354 -115.505 -135.073 -131.832
c-56.2969 -14.4043 -117.497 15.6914 -151.945 59.8594c-45.0654 57.7871 -58.5508 143.293 -58.2627 214.442c0.30957 77.3027 10.9111 154.733 23.9902 230.791c13.4004 77.9277 29.1074 155.401 44.1045 233.024c15.8037 81.8203 27.249 165.312 49.7285 245.451
c6.35547 22.6445 8.84961 88.5342 -31.4043 80.0908c-29.5938 -6.21094 -56.1748 -40.8516 -74.499 -62.749c-42.2559 -50.4863 -82.8135 -109.277 -143.715 -138.77c-23.5957 -11.4297 -67.7373 -10.415 -65.6436 25.3311c1.90625 32.6006 42.2988 51.6836 71.1016 48.0039
c32.5195 -4.15527 56.5371 26.5967 75.8818 48.5576c21.374 24.2627 40.9375 49.9678 64.9443 71.7852c33.332 30.2979 101.454 72.2656 136.26 21.0791c15.5098 -22.8047 12.6631 -49.4336 18.0254 -75.0371c4.19824 -20.0488 8.64746 -37.1768 10.7568 -57.7549
c2.00781 -19.6064 2.0293 -39.3516 2.10938 -59.1494zM700.531 915.912c-0.822266 -17.3096 1.77344 -34.7949 4.27246 -51.9072c4.61426 -31.4463 10.8311 -62.7061 16.8555 -93.9072c1.75195 -9.0791 3.35449 -18.1689 4.84473 -27.2695
c4.29395 34.1064 7.15625 68.5762 5.59668 102.938c-1.27148 28.0498 -2.37695 70.29 -19.793 93.7891c-6.46777 8.72656 -4.80176 7.42383 -8.88184 -3.09766c-2.46191 -6.35547 -2.57422 -13.8701 -2.89453 -20.5459z" />
    <glyph glyph-name="U" unicode="&#xda;" horiz-adv-x="1052" 
d="M377.331 722.64c0.31543 -77.1104 -11.4268 -155.433 -23.3203 -231.501c-21.0156 -134.374 -47.1426 -270.115 -39.4141 -406.652c3.25293 -57.4512 13.5762 -117.38 41.2627 -168.534c12.5664 -23.2217 32.2842 -45.3271 61.5254 -35.5215
c27.0986 9.08496 47.6768 40.4404 62.7539 63.0371c75.54 113.235 112.995 253.1 149.227 382.832c3.90918 13.998 7.85059 28.0225 11.7979 42.0635c-0.629883 67.9189 2.21094 135.811 3.00098 203.74c0.929688 79.9092 -1.45801 160.267 1.35645 240.111
c1.34082 37.9512 4.73242 77.9111 12.5615 115.131c4.74219 22.5537 17.4531 44.8252 39.8633 53.4775c66.6797 25.7529 76.79 -82.6807 78.542 -123.217c3.89844 -90.2969 -12.2412 -181.518 -34.2617 -271.179c4.20898 -79.4229 4.59375 -159.182 9.49121 -238.599
c4.1123 -66.6582 11.8516 -133.37 27.4785 -198.389c8.21387 -34.1914 18.4199 -67.8066 31.5801 -100.438c9.53906 -23.6543 19.1201 -50.2832 34.4482 -70.9736c13.8164 -18.6504 33.3633 -39.9658 55.2021 -22.6719c24.5352 19.4248 42.3838 49.082 58.833 75.2256
c35.7783 56.8633 64.1543 117.348 85.918 180.882c5.9707 17.4434 46.7959 24.6162 39.4795 2.3877c-25.6465 -77.9219 -60.751 -151.758 -103.69 -221.578c-18.4199 -29.9512 -34.4473 -64.3086 -62.7852 -86.3076c-31.0352 -24.0918 -72.4746 -31.2646 -110.341 -21.4639
c-80.3311 20.7861 -110.058 114.746 -130.251 185.527c-15.75 55.1973 -24.9258 111.853 -30.208 168.913c-27.5312 -93.2871 -60.0303 -185.667 -106.409 -269.427c-29.9619 -54.1074 -71.2354 -115.505 -135.073 -131.832
c-56.2969 -14.4043 -117.497 15.6914 -151.945 59.8594c-45.0654 57.7871 -58.5508 143.293 -58.2627 214.442c0.30957 77.3027 10.9111 154.733 23.9902 230.791c13.4004 77.9277 29.1074 155.401 44.1045 233.024c15.8037 81.8203 27.249 165.312 49.7285 245.451
c6.35547 22.6445 8.84961 88.5342 -31.4043 80.0908c-29.5938 -6.21094 -56.1748 -40.8516 -74.499 -62.749c-42.2559 -50.4863 -82.8135 -109.277 -143.715 -138.77c-23.5957 -11.4297 -67.7373 -10.415 -65.6436 25.3311c1.90625 32.6006 42.2988 51.6836 71.1016 48.0039
c32.5195 -4.15527 56.5371 26.5967 75.8818 48.5576c21.374 24.2627 40.9375 49.9678 64.9443 71.7852c33.332 30.2979 101.454 72.2656 136.26 21.0791c15.5098 -22.8047 12.6631 -49.4336 18.0254 -75.0371c4.19824 -20.0488 8.64746 -37.1768 10.7568 -57.7549
c2.00781 -19.6064 2.0293 -39.3516 2.10938 -59.1494zM700.531 915.912c-0.822266 -17.3096 1.77344 -34.7949 4.27246 -51.9072c4.61426 -31.4463 10.8311 -62.7061 16.8555 -93.9072c1.75195 -9.0791 3.35449 -18.1689 4.84473 -27.2695
c4.29395 34.1064 7.15625 68.5762 5.59668 102.938c-1.27148 28.0498 -2.37695 70.29 -19.793 93.7891c-6.46777 8.72656 -4.80176 7.42383 -8.88184 -3.09766c-2.46191 -6.35547 -2.57422 -13.8701 -2.89453 -20.5459z" />
    <glyph glyph-name="V" unicode="V" horiz-adv-x="961" 
d="M798.779 287.414c50.6729 -21.7422 106.399 -30.0527 162.104 -18.207c30.1543 6.41992 28.541 -28.9414 2.87305 -34.3838c-62.3594 -13.2188 -120.339 -8.07031 -172.748 10.6006c-24.5566 -130.657 -51.8584 -266.003 -109.165 -386.587
c-24.541 -51.6396 -60.2227 -103.328 -117.188 -122.005c-59.1436 -19.3926 -131.148 -5.54883 -174.756 41.2842c-91.7969 98.5859 -116.738 252.688 -130.561 381.476c-15.2314 141.915 -17.8809 284.877 -25.2246 427.332
c-3.71191 72.0205 -2.74023 140.948 -29.7695 209.268c-13.0049 32.8721 -66.7549 104.967 -102.709 57.5625c-13.1436 -17.3311 -46.1865 -28.7812 -66.3799 -18.3506c-19.5469 10.0996 -21.1172 36.1729 -5.11621 50.9883
c23.7881 22.0205 53.2695 41.1943 87.2793 38.2676c21.6084 -1.8584 46.625 -12.9561 64.7783 -24.417c46.0752 -29.0859 65.6221 -80.7314 79.1338 -131.207c18.4951 -69.083 43.8906 -135.677 58.1182 -205.94c14.2383 -70.3271 25.6514 -141.487 35.3184 -212.584
c16.6523 -122.464 29.4707 -249.249 70.541 -366.521c19.6221 -56.0137 41.5244 -109.496 77.8154 -156.789c13.2988 -17.3418 35.0254 -35.2285 58.2734 -36.4355c22.6553 -1.18066 42.2881 23.707 54.4756 39.7773c36.7822 48.4785 57.0879 108.349 74.2314 165.997
c18.1904 61.1729 33.3691 123.355 47.0361 185.677c5.76758 26.3037 11.2207 52.7461 16.3428 79.29c-169.521 85.6016 -270.222 316.126 -253.094 501.776c8.82812 95.7549 80.5713 261.25 203.623 232.517c58.7861 -13.7256 91.6797 -66.7754 107.488 -121.23
c18.752 -64.5918 25.4648 -133.082 26.5488 -200.125c2.09375 -129.481 -16.1875 -259.62 -39.2705 -387.029zM668.326 384.771c26.335 -30.8164 58.1592 -57.8965 93.4189 -78.5918c15.5635 88.1709 26.8965 177.319 31.751 266.334
c3.46094 63.4863 2.8252 127.373 -5.26074 190.507c-7.55762 58.9619 -17.251 133.61 -63.9824 175.733c-21.8701 19.7129 -52.6221 31.9219 -80.9229 18.5381c-26.6182 -12.5938 -47.2549 -40.3496 -61.7119 -65.0771
c-31.4033 -53.707 -41.7803 -116.504 -38.5488 -178.051c6.07227 -115.644 49.4336 -240.677 125.257 -329.393z" />
    <glyph glyph-name="W" unicode="W" horiz-adv-x="1226" 
d="M179.393 829.871c4.89258 -45.8184 -3.90234 -93.8447 -3.95605 -139.92c-0.144531 -96.1016 17.6455 -193.63 26.6553 -289.235c8.81738 -93.5869 15.9951 -189.417 34.5703 -281.652c7.94141 -39.4414 21.0635 -80.042 44.2529 -113.417
c14.0996 -20.2949 39.7617 -47.5752 66.9307 -47.292c1.27637 0.331055 3.30078 0.982422 5.00977 2.16309c2.91113 2.00781 6.0625 3.67969 8.99414 5.67676c7.97949 5.44238 14.8848 11.9102 21.3848 19.0029c13.4961 14.7354 24.8662 31.3662 35.4033 48.291
c9.12695 14.6494 17.3838 29.7852 25.0156 45.2305c-4.68945 21.5664 -8.48633 42.8281 -11.8721 62.8984c-17.8008 105.534 -18.0996 211.725 -10.7344 318.22c3.66895 53.0283 9.81055 105.902 16.4814 158.627c6.64355 52.5537 14.0723 111.024 34.5381 160.25
c13.8809 33.375 33.2783 80.9824 70.5781 93.6348c34.6348 11.75 63.1387 -9.46387 76.9121 -40.5156c19.0664 -42.9775 18.9004 -97.4326 18.4355 -143.523c-0.549805 -54.8926 -7.15625 -109.641 -16.0967 -163.737
c-16.9033 -102.266 -42.4434 -202.544 -74.4717 -301.044c1.80566 -11.5303 3.75 -23.04 5.88086 -34.5176c8.06445 -43.501 18.5801 -86.8252 32.3594 -128.884c12.5879 -38.4326 26.0732 -81.0684 50.7744 -113.647c22.292 -29.4121 52.1953 -40.1787 87.9414 -33.877
c41.6689 7.35449 71.2354 37.9355 97.1699 69.585c55.7734 68.0732 93.9922 151.384 127.073 232.323c7.22559 17.6836 13.9873 35.5215 20.4766 53.4502c-105.288 52.6016 -179.637 162.371 -201.043 282.399c-17.1328 96.0703 -4.65723 200.21 31.083 290.773
c27.2061 68.9443 89.2129 170.879 177.752 147.593c90.959 -23.9209 111.446 -148.345 117.951 -227.143c8.51855 -103.2 -9.11133 -207.223 -32.7705 -307.357c-12.8281 -54.2783 -27.9424 -108.15 -45.4766 -161.206c68.6768 -29.1016 146.503 -31.4834 219.906 8.2627
c25.4805 13.7949 39.4678 -15.9795 14.4404 -29.6094c-38.2666 -20.8398 -80.6084 -33.1182 -124.146 -35.7988c-44.0615 -2.70801 -85.6025 3.86133 -123.811 17.6299c-11.4131 -31.9268 -23.6758 -63.5332 -37.0547 -94.6436
c-37.8398 -87.9893 -82.2695 -175.21 -150.744 -243.514c-34.3682 -34.2822 -73.8633 -68.335 -122.929 -76.9336c-48.6602 -8.5293 -91.8887 4.82812 -132.569 31.0303c-49.7383 32.0391 -79.1768 85.4365 -98.2754 143.031
c-12.8018 -21.3682 -27.2002 -41.5674 -43.7783 -59.9287c-29.9248 -33.1396 -70.9531 -60.5107 -115.8 -66.8555c-48.6758 -6.88965 -95.1348 18.8154 -124.306 56.6445c-62.5303 81.0947 -62.9678 196.92 -68.207 294.641
c-6.16309 114.955 0.229492 229.83 9.98145 344.363c4.97754 58.4336 8.56152 115.74 7.46094 174.43c-0.448242 23.9639 3.83496 59.4375 -12.6201 78.7393c-6.70312 7.86133 -12.1348 8.72656 -20.5195 13.2285c-0.293945 0.160156 -1.1748 0.326172 -2.2373 0.501953
c-29.8604 -29.417 -96.5078 -7.89941 -60.96 35.2646c23.7822 28.8828 66.2197 42.4375 101.934 29.2295c35.7939 -13.2344 43.3887 -48.751 47.0312 -82.8623zM841.661 465.317c29.9668 -64.8154 80.9512 -120.851 141.842 -155.827
c17.918 54.5078 32.7598 109.998 45.0488 166.135c19.7178 90.0879 33.4863 182.719 25.4805 275.088c-3.89844 44.9316 -12.4121 90.6484 -29.6787 132.482c-14.8369 35.959 -53.5361 90.9268 -100.289 71.6523c-36.7441 -15.1514 -62.791 -65.6641 -78.1885 -99.7275
c-17.7793 -39.3291 -28.4932 -82.1572 -35.3135 -124.654c-14.2549 -88.7695 -6.91699 -182.933 31.0986 -265.148zM532.495 730.22c-3.51953 -131.101 -8.28809 -264.657 2.1748 -396.297c7.99023 29.7646 15.3389 59.6943 21.9717 89.7578
c20.7754 94.1631 38.3096 191.413 34.373 288.193c-1.31934 32.5303 0.837891 97.5166 -29.001 120.199c-23.2266 17.6514 -25.8223 -25.9404 -26.084 -40.4883c-0.374023 -20.4395 -2.87891 -40.793 -3.43457 -61.3652z" />
    <glyph glyph-name="X" unicode="X" horiz-adv-x="986" 
d="M981.423 241.686c5.60254 18.4199 47.8359 26.1973 41.1279 2.5c-21.0322 -74.2637 -49.5039 -146.358 -85.8213 -214.501c-32.3066 -60.6182 -70.0869 -129.124 -123.212 -174.109c-107.697 -91.1992 -250.274 -19.2646 -314.358 86.0078
c-36.3223 59.667 -56.9053 127.303 -75.0479 194.266c-11.3174 41.7812 -20.1133 84.2676 -27.3926 127.016c-25.5293 -58.0381 -53.1465 -115.158 -88.8125 -167.69c-34.2451 -50.4385 -116.915 -157.831 -184.866 -89.165
c-15.125 15.2852 19.4082 38.0693 32.7119 24.7178c63.208 -63.4219 161.938 147.063 181.715 188.914c17.208 36.4082 33.1768 73.377 48.9531 110.432c-1.20703 8.82812 -2.37695 17.6562 -3.49805 26.4844c-18.8525 148.292 -30.9385 297.038 -42.3145 446.009
c-2.00293 26.2715 1.26562 64.7949 -22.127 81.9922c-27.5049 20.2256 -65.3867 12.1182 -93.6768 -1.33496c-59.833 -28.4561 -93.9922 -90.8359 -158.524 -108.834c-20.8984 -5.83203 -52.0352 -0.335938 -54.7324 25.9297
c-2.75098 26.7891 25.79 46.6143 48.1035 53.3438c16.8398 5.0791 33.3486 9.01562 50.7969 11.5205c1.28223 0.224609 2.31836 0.400391 3.23145 0.555664c4.83301 1.88574 9.56445 4.00098 14.168 6.4043c4.9834 2.56348 9.84375 5.54883 14.7148 8.33691
c28.7979 16.5029 55.7793 34.9121 87.6152 45.3262c61.4033 20.0869 113.845 6.96973 158.424 -39.1689c42.7266 -44.2217 52.7676 -111.942 66.2314 -169.612c13.1436 -56.2812 21.4326 -113.774 29.1074 -171.156c32.1191 63.833 67.3145 126.245 107.739 185.09
c23.9912 34.918 50.0166 68.2119 81.3193 96.9189c29.4062 26.96 66.4336 58.3369 108.871 52.2168c27.8096 -4.01074 1.5332 -37.9033 -19.0342 -34.875c-23.3662 3.43945 -54.4277 -29.3213 -69.585 -44.1689c-16.5566 -16.2197 -31.5645 -33.9883 -45.5996 -52.4082
c-30.9551 -40.6221 -57.6221 -84.7793 -82.8574 -129.113c-25.8975 -45.4873 -49.6689 -92.1074 -72.1318 -139.362c17.3467 -131.367 34.0098 -266.734 72.8535 -393.396c17.7363 -57.8457 43.3564 -120.803 85.2598 -165.617
c19.1094 -20.4336 40.3447 -37.6465 66.2471 -48.6436c28.1035 -11.9316 54.4072 -0.192383 75.8662 18.8584c47.5654 42.2246 81.4795 106.447 110.992 161.911c32.0234 60.1748 57.7236 123.212 77.543 188.407z" />
    <glyph glyph-name="Y" unicode="Y" horiz-adv-x="1003" 
d="M225.163 894.394c58.5186 -40.9902 76.8662 -137.018 87.04 -202.517c12.9248 -83.3105 17.8223 -167.604 29.3369 -251.113c10.5693 -76.6406 24.5996 -159.738 57.5254 -230.365c11.1035 -23.8145 24.2363 -53.0068 51.127 -62.2412
c25.3633 -8.71094 52.2861 2.74512 72.8965 17.4697c32.7871 23.4297 55.8486 60.0625 76.918 93.7197c17.9775 28.7119 34.2832 58.54 49.2217 88.9395c12.8184 26.0947 24.9365 53.2686 36.1738 81.1416c-3.81348 57.9854 -8.66797 115.97 -14.8154 174.115
c-8.50293 80.459 -20.627 160.592 -26.8379 241.296c-2.79883 36.3545 5.0791 70.4873 39.2334 89.292c20.2148 11.1299 46.7314 13.6885 65.8086 -1.14844c48.7773 -37.9355 55.8701 -122.026 53.584 -178.185c-2.18457 -53.6748 -11.0664 -107.371 -22.9229 -160.021
c27.7021 -147.133 32.2422 -298.528 35.2705 -447.723c0.160156 -7.88867 0.326172 -15.8037 0.481445 -23.7402c64.7197 41.1777 130.839 80.3203 195.393 120.146c19.5576 12.0596 46.5449 -6.46191 22.8105 -21.1064
c-72.9229 -44.9854 -145.531 -90.5156 -217.557 -136.933c1.62891 -123.5 -2.9375 -250.595 -57.5947 -362.874c-31.7559 -65.2373 -82.248 -129.086 -157.302 -143.725c-62.4014 -12.1719 -111.958 27.9424 -135.815 83.0488
c-56.4736 130.448 68.1699 251.337 159.93 326.498c23.1045 18.9229 46.9082 37.0869 71.1982 54.6904c-0.0859375 20.9355 -0.283203 41.6309 -0.30957 61.8994c-0.0957031 76.9658 -1.84766 153.445 -5.31934 229.803
c-28.9629 -60.0254 -63.3789 -117.358 -103.392 -170.408c-43.5645 -57.7607 -106.398 -99.0234 -181.521 -91.8779c-70.4287 6.70312 -115.762 63.2783 -141.157 124.312c-58.5459 140.708 -57.0879 308.408 -53.5732 458.137
c0.950195 40.5156 4.27734 80.2188 7.17188 120.616c1.22852 17.1328 3.46582 37.2246 -0.999023 54.0752c-4.21387 15.8945 -23.1094 41.5889 -42.4004 40.6328c-18.6875 -0.929688 -42.4482 -30.4912 -58.6523 -40.9219
c-26.9814 -17.3682 -56.7939 -21.8652 -87.2207 -12.3799c-39.335 12.2627 12.1504 64.6768 40.916 57.8242c8.41699 -2.00293 17.2344 4.20312 28.5732 10.4785c14.5537 8.05371 28.376 16.0859 44.6016 20.4971c27.6064 7.50879 58.3428 5.34082 82.1787 -11.3545z
M630.381 -303.378c56.0459 90.8516 64.8799 201.319 65.8145 308.29c-34.9873 -25.5234 -68.6504 -52.7773 -99.376 -83.1445c-52.1846 -51.5703 -120.007 -129.146 -95.5088 -208.846c9.79492 -31.8633 39.5908 -63.8008 75.4111 -62.5938
c25.5449 0.865234 41.5889 26.7305 53.6592 46.2939zM717.163 859.33c11.7334 -50.8604 24.8877 -101.331 37.2676 -152.004c1.3623 17.5654 2.06738 35.0674 2.0459 52.4463c-0.0429688 37.8232 -5.03125 76.2129 -22.0732 110.415
c-3.57812 7.18359 -11.6592 25.6895 -20.5781 32.1787c-0.368164 -1.29199 -0.956055 -2.83594 -1.84277 -4.74219c-0.0107422 -3.16699 -0.0214844 -6.3291 -0.0322266 -9.49609c0.336914 -9.74707 3.03418 -19.3604 5.21289 -28.7979z" />
    <glyph glyph-name="Y" unicode="&#x178;" horiz-adv-x="1003" 
d="M225.163 894.394c58.5186 -40.9902 76.8662 -137.018 87.04 -202.517c12.9248 -83.3105 17.8223 -167.604 29.3369 -251.113c10.5693 -76.6406 24.5996 -159.738 57.5254 -230.365c11.1035 -23.8145 24.2363 -53.0068 51.127 -62.2412
c25.3633 -8.71094 52.2861 2.74512 72.8965 17.4697c32.7871 23.4297 55.8486 60.0625 76.918 93.7197c17.9775 28.7119 34.2832 58.54 49.2217 88.9395c12.8184 26.0947 24.9365 53.2686 36.1738 81.1416c-3.81348 57.9854 -8.66797 115.97 -14.8154 174.115
c-8.50293 80.459 -20.627 160.592 -26.8379 241.296c-2.79883 36.3545 5.0791 70.4873 39.2334 89.292c20.2148 11.1299 46.7314 13.6885 65.8086 -1.14844c48.7773 -37.9355 55.8701 -122.026 53.584 -178.185c-2.18457 -53.6748 -11.0664 -107.371 -22.9229 -160.021
c27.7021 -147.133 32.2422 -298.528 35.2705 -447.723c0.160156 -7.88867 0.326172 -15.8037 0.481445 -23.7402c64.7197 41.1777 130.839 80.3203 195.393 120.146c19.5576 12.0596 46.5449 -6.46191 22.8105 -21.1064
c-72.9229 -44.9854 -145.531 -90.5156 -217.557 -136.933c1.62891 -123.5 -2.9375 -250.595 -57.5947 -362.874c-31.7559 -65.2373 -82.248 -129.086 -157.302 -143.725c-62.4014 -12.1719 -111.958 27.9424 -135.815 83.0488
c-56.4736 130.448 68.1699 251.337 159.93 326.498c23.1045 18.9229 46.9082 37.0869 71.1982 54.6904c-0.0859375 20.9355 -0.283203 41.6309 -0.30957 61.8994c-0.0957031 76.9658 -1.84766 153.445 -5.31934 229.803
c-28.9629 -60.0254 -63.3789 -117.358 -103.392 -170.408c-43.5645 -57.7607 -106.398 -99.0234 -181.521 -91.8779c-70.4287 6.70312 -115.762 63.2783 -141.157 124.312c-58.5459 140.708 -57.0879 308.408 -53.5732 458.137
c0.950195 40.5156 4.27734 80.2188 7.17188 120.616c1.22852 17.1328 3.46582 37.2246 -0.999023 54.0752c-4.21387 15.8945 -23.1094 41.5889 -42.4004 40.6328c-18.6875 -0.929688 -42.4482 -30.4912 -58.6523 -40.9219
c-26.9814 -17.3682 -56.7939 -21.8652 -87.2207 -12.3799c-39.335 12.2627 12.1504 64.6768 40.916 57.8242c8.41699 -2.00293 17.2344 4.20312 28.5732 10.4785c14.5537 8.05371 28.376 16.0859 44.6016 20.4971c27.6064 7.50879 58.3428 5.34082 82.1787 -11.3545z
M630.381 -303.378c56.0459 90.8516 64.8799 201.319 65.8145 308.29c-34.9873 -25.5234 -68.6504 -52.7773 -99.376 -83.1445c-52.1846 -51.5703 -120.007 -129.146 -95.5088 -208.846c9.79492 -31.8633 39.5908 -63.8008 75.4111 -62.5938
c25.5449 0.865234 41.5889 26.7305 53.6592 46.2939zM717.163 859.33c11.7334 -50.8604 24.8877 -101.331 37.2676 -152.004c1.3623 17.5654 2.06738 35.0674 2.0459 52.4463c-0.0429688 37.8232 -5.03125 76.2129 -22.0732 110.415
c-3.57812 7.18359 -11.6592 25.6895 -20.5781 32.1787c-0.368164 -1.29199 -0.956055 -2.83594 -1.84277 -4.74219c-0.0107422 -3.16699 -0.0214844 -6.3291 -0.0322266 -9.49609c0.336914 -9.74707 3.03418 -19.3604 5.21289 -28.7979z" />
    <glyph glyph-name="Y" unicode="&#xdd;" horiz-adv-x="1003" 
d="M225.163 894.394c58.5186 -40.9902 76.8662 -137.018 87.04 -202.517c12.9248 -83.3105 17.8223 -167.604 29.3369 -251.113c10.5693 -76.6406 24.5996 -159.738 57.5254 -230.365c11.1035 -23.8145 24.2363 -53.0068 51.127 -62.2412
c25.3633 -8.71094 52.2861 2.74512 72.8965 17.4697c32.7871 23.4297 55.8486 60.0625 76.918 93.7197c17.9775 28.7119 34.2832 58.54 49.2217 88.9395c12.8184 26.0947 24.9365 53.2686 36.1738 81.1416c-3.81348 57.9854 -8.66797 115.97 -14.8154 174.115
c-8.50293 80.459 -20.627 160.592 -26.8379 241.296c-2.79883 36.3545 5.0791 70.4873 39.2334 89.292c20.2148 11.1299 46.7314 13.6885 65.8086 -1.14844c48.7773 -37.9355 55.8701 -122.026 53.584 -178.185c-2.18457 -53.6748 -11.0664 -107.371 -22.9229 -160.021
c27.7021 -147.133 32.2422 -298.528 35.2705 -447.723c0.160156 -7.88867 0.326172 -15.8037 0.481445 -23.7402c64.7197 41.1777 130.839 80.3203 195.393 120.146c19.5576 12.0596 46.5449 -6.46191 22.8105 -21.1064
c-72.9229 -44.9854 -145.531 -90.5156 -217.557 -136.933c1.62891 -123.5 -2.9375 -250.595 -57.5947 -362.874c-31.7559 -65.2373 -82.248 -129.086 -157.302 -143.725c-62.4014 -12.1719 -111.958 27.9424 -135.815 83.0488
c-56.4736 130.448 68.1699 251.337 159.93 326.498c23.1045 18.9229 46.9082 37.0869 71.1982 54.6904c-0.0859375 20.9355 -0.283203 41.6309 -0.30957 61.8994c-0.0957031 76.9658 -1.84766 153.445 -5.31934 229.803
c-28.9629 -60.0254 -63.3789 -117.358 -103.392 -170.408c-43.5645 -57.7607 -106.398 -99.0234 -181.521 -91.8779c-70.4287 6.70312 -115.762 63.2783 -141.157 124.312c-58.5459 140.708 -57.0879 308.408 -53.5732 458.137
c0.950195 40.5156 4.27734 80.2188 7.17188 120.616c1.22852 17.1328 3.46582 37.2246 -0.999023 54.0752c-4.21387 15.8945 -23.1094 41.5889 -42.4004 40.6328c-18.6875 -0.929688 -42.4482 -30.4912 -58.6523 -40.9219
c-26.9814 -17.3682 -56.7939 -21.8652 -87.2207 -12.3799c-39.335 12.2627 12.1504 64.6768 40.916 57.8242c8.41699 -2.00293 17.2344 4.20312 28.5732 10.4785c14.5537 8.05371 28.376 16.0859 44.6016 20.4971c27.6064 7.50879 58.3428 5.34082 82.1787 -11.3545z
M630.381 -303.378c56.0459 90.8516 64.8799 201.319 65.8145 308.29c-34.9873 -25.5234 -68.6504 -52.7773 -99.376 -83.1445c-52.1846 -51.5703 -120.007 -129.146 -95.5088 -208.846c9.79492 -31.8633 39.5908 -63.8008 75.4111 -62.5938
c25.5449 0.865234 41.5889 26.7305 53.6592 46.2939zM717.163 859.33c11.7334 -50.8604 24.8877 -101.331 37.2676 -152.004c1.3623 17.5654 2.06738 35.0674 2.0459 52.4463c-0.0429688 37.8232 -5.03125 76.2129 -22.0732 110.415
c-3.57812 7.18359 -11.6592 25.6895 -20.5781 32.1787c-0.368164 -1.29199 -0.956055 -2.83594 -1.84277 -4.74219c-0.0107422 -3.16699 -0.0214844 -6.3291 -0.0322266 -9.49609c0.336914 -9.74707 3.03418 -19.3604 5.21289 -28.7979z" />
    <glyph glyph-name="Z" unicode="Z" horiz-adv-x="857" 
d="M590.838 758.107c32.7607 -104.535 25.5674 -210.828 6.93359 -317.345c25.8223 5.5166 51.5967 11.2793 77.3604 17.0576c30.875 6.92676 29.1445 -29.3643 2.94824 -35.2393c-29.0752 -6.52148 -58.166 -13.0371 -87.3271 -19.1738
c-17.6299 -87.9736 -43.0088 -174.82 -76.084 -258.062c-9.10645 -22.917 -18.8584 -45.7168 -29.3369 -68.2285c140.874 38.0371 280.033 88.417 377.774 200.937c15.0508 17.3203 53.4346 7.62109 33.5186 -15.3018
c-111.109 -127.906 -271.605 -183.515 -431.049 -225.931c-27.3555 -53.1621 -59.1328 -104.092 -96.4863 -150.407c-60.6924 -75.252 -153.019 -140.949 -254.05 -133.039c-46.3633 3.62598 -82.5684 24.6104 -93.293 72.0684
c-9.99219 44.2002 9.74219 84.2881 44.4678 111.852c35.6445 28.2959 83.0918 43.5869 125.434 58.6377c49.0928 17.4482 99.3389 31.3926 149.761 44.3916c1.23926 0.320312 2.49414 0.635742 3.7334 0.956055c41.5352 77.126 73.0293 159.203 98.0186 243.075
c9.48535 31.8262 18.4043 64.1006 26.4688 96.6416c-38.4805 -5.88574 -77.0625 -8.78027 -114.892 3.85645c-22.084 7.38086 6.68164 38.0049 23.3926 33.0596c31.7451 -9.39453 66.4014 -6.25977 100.102 -0.53418c10.7354 47.8584 19.2861 96.1875 24.3652 144.537
c5.08984 48.4463 8.44922 97.0898 5.875 145.819c-2.01855 38.1016 -5.74121 78.7607 -22.6123 113.523c-45.835 94.4414 -175.344 30.7363 -243.22 1.3457c-40.6484 -17.6035 -83.2197 -31.8525 -123.185 -50.5986c-27.7988 -13.0371 -94.2275 -35.9756 -108.883 7.17773
c-12.001 35.335 49.9736 69.2539 72.1055 41.6104c8.40625 -0.726562 21.6357 0.523438 28.2051 0.326172c14.7246 -0.448242 26.0684 1.08496 40.2637 5.41113c27.377 8.34277 53.6914 19.1045 80 30.2832c49.082 20.8506 98.9541 42.8975 152.276 49.7979
c97.373 12.6045 179.226 -58.5664 207.414 -148.505zM196.476 -143.449c53.9951 33.6309 93.3896 88.4902 125.829 143.848c-67.1338 -17.1865 -134.523 -36.627 -196.118 -66.9941c-21.4482 -10.5752 -45.8018 -26.0049 -51.2979 -51.0742
c-5.41602 -24.7168 9.65527 -37.748 31.5146 -43.8955c33.2139 -9.34082 63.0586 1.29297 90.0723 18.1162z" />
    <glyph glyph-name="bracketleft" unicode="[" horiz-adv-x="375" 
d="M276.711 -169.934c43.3242 12.4707 67.0898 -33.9736 29.3574 -60.1914c-43.875 -30.4795 -107.436 -54.7588 -158.194 -26.0625c-43.0469 24.333 -56.7998 72.0742 -66.8564 117.198c-21.6992 97.3359 -17.4639 199.355 -20.834 298.448
c-3.58887 105.496 -8.36914 210.977 -9.87012 316.532c-1.46875 103.393 1.81543 209.621 18.0996 311.881c6.12012 38.4434 13.4688 79.8232 44.792 106.346c26.5059 22.4424 70.5781 27.5693 101.661 12.1348c21.6572 -10.751 -9.47949 -34.4854 -25.4697 -28.8184
c-7.2959 3.15137 -14.8369 3.87793 -22.6074 2.3291c-0.539062 -0.709961 -1.14746 -1.51074 -1.87891 -2.45605c-4.89258 -8.4707 -9.00488 -14.1797 -11.2266 -24.0811c-4.86523 -21.71 -1.47363 -45.0918 -1.22266 -67.085
c0.592773 -51.9072 1.77344 -103.761 2.83594 -155.651c2.14746 -104.946 6.76758 -209.94 11.8418 -314.785c5.00977 -103.515 7.94727 -207.228 13.9561 -310.679c2.71289 -46.6465 6.19531 -96.2461 21.2988 -140.799
c4.49707 -13.2773 11.0879 -34.2021 23.8252 -42.2236c14.7139 -9.27148 35.9277 3.77051 50.4922 7.96289z" />
    <glyph glyph-name="backslash" unicode="\" horiz-adv-x="544" 
d="M490.896 -170.404c22.709 -53.1191 -82.1152 -104.287 -108.899 -53.1113c-162.664 310.694 -238.471 657.049 -331.117 992.498c-7.79785 28.2363 38.3037 51.8154 55.3516 26.9971c48.6387 -70.7979 78.4297 -151.209 105.155 -232.314
c27.0352 -82.0508 52.3242 -164.688 80.6836 -246.301c57.8135 -166.365 129.679 -326.044 198.826 -487.769z" />
    <glyph glyph-name="bracketright" unicode="]" horiz-adv-x="311" 
d="M259.227 217.229c4.01074 -91.4072 3.51855 -183.632 -9.8125 -274.323c-6.28125 -42.748 -12.3535 -90.0352 -34.6406 -127.976c-23.916 -40.707 -61.3174 -63.502 -107.328 -70.749c-20.8027 -3.2793 -41.3271 11.5361 -40.083 32.7227
c1.45312 24.6855 25.6895 39.7998 46.6357 46.9834c-11.4082 -3.91504 1.14258 2.62695 4.22949 6.97949c4.65137 6.56934 6.69141 14.9863 8.80664 22.6289c6.08301 21.9609 9.09473 45.0068 12.2246 67.5557c6.55859 47.2549 10.0459 94.9854 11.3701 142.657
c2.63867 95.1143 -3.42871 190.19 -10.2227 285.011c-6.85742 95.6855 -13.0527 191.36 -18.1211 287.158c-2.56934 48.542 -2.96973 97.127 -7.15137 145.589c-2.08301 24.1562 -4.64648 48.3984 -5.75195 72.5977c-0.250977 5.50098 1.14258 19.248 -1.19629 24.3164
c-7.61621 16.5244 -27.1523 8.34277 -39.1104 5.14355c-26.9072 -7.19434 -23.1104 22.7305 -2.5166 30.1113c34.9766 12.5293 77.2119 14.7139 103.425 -16.877c28.6582 -34.5332 34.2236 -89.2285 40.4238 -132.003c26.1748 -180.471 40.8242 -365.379 48.8193 -547.526z
" />
    <glyph glyph-name="asciicircum" unicode="^" horiz-adv-x="370" 
d="M317.112 524.603c21.9453 -46.3955 -71.0068 -91.0479 -96.3008 -46.9756c-14.7246 25.6406 -21.2939 54.6201 -30.5225 82.499c-5.61816 16.9619 -13.0791 43.3135 -27.2695 58.4541c-3.30078 -3.4502 -6.58496 -6.92188 -9.62891 -10.6182
c-7.24219 -8.80664 -13.1436 -18.4521 -19.4141 -27.9482c-14.5371 -22.0254 -27.2588 -44.5156 -47.2227 -62.124c-6.66016 -5.87988 -29.8232 -11.792 -33.7754 1.4209c-10.0088 33.4648 7.06055 74.2412 24.0332 103.007c21.7852 36.915 56.5537 73.9053 101.736 78.0547
c85.9492 7.89941 110.581 -117.048 138.364 -175.77zM170.165 625.625c6.06152 0.507812 4.78516 3.50879 0 0z" />
    <glyph glyph-name="underscore" unicode="_" horiz-adv-x="547" 
d="M478.052 -74.4727c41.3057 -9.19141 6.75586 -55.791 -21.8115 -55.7266c-69.3555 0.144531 -138.283 9.72559 -207.772 9.34668c-34.0791 -0.186523 -67.8164 -3.16699 -101.778 -5.4209c-29.2461 -1.93848 -60.9014 -5.32422 -88.2354 7.3125
c-20.1025 9.29297 0.213867 32.5361 13.918 35.7402c33.3906 7.80859 68.6611 10.2383 102.655 14.7725c32.5254 4.33691 65.3496 6.66504 98.1416 7.62598c67.3096 1.9707 138.967 1.02051 204.883 -13.6504z" />
    <glyph glyph-name="grave" unicode="`" horiz-adv-x="187" 
d="M136.399 638.831c5.29785 -24.001 -45.0879 -41.1562 -51.8174 -13.8057c-7.19922 29.2676 -17.2451 57.3604 -32.8613 83.2314c-9.9873 16.5508 26.2607 36.7871 37.5674 23.0078c22.7842 -27.7725 39.3457 -57.2324 47.1113 -92.4336z" />
    <glyph glyph-name="a" unicode="a" horiz-adv-x="477" 
d="M479.324 273.427c8.82812 16.5674 45.3223 18.4346 35.6982 -5.88184c-24.1885 -61.1416 -47.5059 -123.361 -84.667 -178.12c-30.042 -44.2646 -67.7959 -73.2646 -124.2 -64.5488c-64.084 9.89648 -89.6289 77.2969 -98.1152 134.102
c-1.18555 7.92578 -2.12012 15.8887 -2.86816 23.873c-10.1582 -35.9219 -21.2773 -71.7637 -36.2471 -105.801c-15.584 -35.4414 -43.6768 -69.5635 -85.6338 -69.8574c-46.0273 -0.326172 -85.667 11.5146 -100.728 59.7744
c-26.5166 84.9668 1.45801 192.578 58.8555 258.975c31.5908 36.5469 79.3271 64.8525 128.975 54.6094c16.7861 -3.46582 32.1035 -9.39453 45.9844 -17.502c0.0478516 0.277344 0.0957031 0.554688 0.143555 0.827148c4.71582 26.1484 34.752 43.5225 58.54 47.5654
c17.9775 3.05469 53.9795 -3.38672 52.2168 -29.3594c-3.50391 -51.5918 -10.5215 -102.746 -12.5029 -154.45c-1.63965 -42.7852 -5.33008 -98.5273 15.7285 -137.44c3.62109 -6.69238 8.50781 -16.5938 14.751 -21.208c13.6084 -10.0625 22.7734 -0.635742 32.0664 9.9707
c17.0527 19.4668 30.2822 42.9873 42.3682 65.7549c22.2227 41.8555 37.3848 86.9688 59.6348 128.718zM189.385 276.068c3.98926 13.9443 7.7373 28.4189 11.9355 42.7803c-16.4385 11.8516 -35.6172 18.2178 -52.793 5.73145
c-22.6182 -16.4385 -40.9053 -40.1943 -53.6699 -64.9062c-25.7266 -49.8135 -33.7588 -117.925 -19.835 -172.358c2.37695 -9.28809 8.07031 -33.6953 15.6328 -39.9443c14.543 -12.0225 29.2783 17.042 34.9561 28.4609c15.5254 31.2168 25.2666 66.0811 35.2061 99.3916
c9.9873 33.4814 18.9541 67.251 28.5674 100.845z" />
    <glyph glyph-name="a" unicode="&#xe5;" horiz-adv-x="477" 
d="M479.324 273.427c8.82812 16.5674 45.3223 18.4346 35.6982 -5.88184c-24.1885 -61.1416 -47.5059 -123.361 -84.667 -178.12c-30.042 -44.2646 -67.7959 -73.2646 -124.2 -64.5488c-64.084 9.89648 -89.6289 77.2969 -98.1152 134.102
c-1.18555 7.92578 -2.12012 15.8887 -2.86816 23.873c-10.1582 -35.9219 -21.2773 -71.7637 -36.2471 -105.801c-15.584 -35.4414 -43.6768 -69.5635 -85.6338 -69.8574c-46.0273 -0.326172 -85.667 11.5146 -100.728 59.7744
c-26.5166 84.9668 1.45801 192.578 58.8555 258.975c31.5908 36.5469 79.3271 64.8525 128.975 54.6094c16.7861 -3.46582 32.1035 -9.39453 45.9844 -17.502c0.0478516 0.277344 0.0957031 0.554688 0.143555 0.827148c4.71582 26.1484 34.752 43.5225 58.54 47.5654
c17.9775 3.05469 53.9795 -3.38672 52.2168 -29.3594c-3.50391 -51.5918 -10.5215 -102.746 -12.5029 -154.45c-1.63965 -42.7852 -5.33008 -98.5273 15.7285 -137.44c3.62109 -6.69238 8.50781 -16.5938 14.751 -21.208c13.6084 -10.0625 22.7734 -0.635742 32.0664 9.9707
c17.0527 19.4668 30.2822 42.9873 42.3682 65.7549c22.2227 41.8555 37.3848 86.9688 59.6348 128.718zM189.385 276.068c3.98926 13.9443 7.7373 28.4189 11.9355 42.7803c-16.4385 11.8516 -35.6172 18.2178 -52.793 5.73145
c-22.6182 -16.4385 -40.9053 -40.1943 -53.6699 -64.9062c-25.7266 -49.8135 -33.7588 -117.925 -19.835 -172.358c2.37695 -9.28809 8.07031 -33.6953 15.6328 -39.9443c14.543 -12.0225 29.2783 17.042 34.9561 28.4609c15.5254 31.2168 25.2666 66.0811 35.2061 99.3916
c9.9873 33.4814 18.9541 67.251 28.5674 100.845z" />
    <glyph glyph-name="a" unicode="&#xe4;" horiz-adv-x="477" 
d="M479.324 273.427c8.82812 16.5674 45.3223 18.4346 35.6982 -5.88184c-24.1885 -61.1416 -47.5059 -123.361 -84.667 -178.12c-30.042 -44.2646 -67.7959 -73.2646 -124.2 -64.5488c-64.084 9.89648 -89.6289 77.2969 -98.1152 134.102
c-1.18555 7.92578 -2.12012 15.8887 -2.86816 23.873c-10.1582 -35.9219 -21.2773 -71.7637 -36.2471 -105.801c-15.584 -35.4414 -43.6768 -69.5635 -85.6338 -69.8574c-46.0273 -0.326172 -85.667 11.5146 -100.728 59.7744
c-26.5166 84.9668 1.45801 192.578 58.8555 258.975c31.5908 36.5469 79.3271 64.8525 128.975 54.6094c16.7861 -3.46582 32.1035 -9.39453 45.9844 -17.502c0.0478516 0.277344 0.0957031 0.554688 0.143555 0.827148c4.71582 26.1484 34.752 43.5225 58.54 47.5654
c17.9775 3.05469 53.9795 -3.38672 52.2168 -29.3594c-3.50391 -51.5918 -10.5215 -102.746 -12.5029 -154.45c-1.63965 -42.7852 -5.33008 -98.5273 15.7285 -137.44c3.62109 -6.69238 8.50781 -16.5938 14.751 -21.208c13.6084 -10.0625 22.7734 -0.635742 32.0664 9.9707
c17.0527 19.4668 30.2822 42.9873 42.3682 65.7549c22.2227 41.8555 37.3848 86.9688 59.6348 128.718zM189.385 276.068c3.98926 13.9443 7.7373 28.4189 11.9355 42.7803c-16.4385 11.8516 -35.6172 18.2178 -52.793 5.73145
c-22.6182 -16.4385 -40.9053 -40.1943 -53.6699 -64.9062c-25.7266 -49.8135 -33.7588 -117.925 -19.835 -172.358c2.37695 -9.28809 8.07031 -33.6953 15.6328 -39.9443c14.543 -12.0225 29.2783 17.042 34.9561 28.4609c15.5254 31.2168 25.2666 66.0811 35.2061 99.3916
c9.9873 33.4814 18.9541 67.251 28.5674 100.845z" />
    <glyph glyph-name="a" unicode="&#xe3;" horiz-adv-x="477" 
d="M479.324 273.427c8.82812 16.5674 45.3223 18.4346 35.6982 -5.88184c-24.1885 -61.1416 -47.5059 -123.361 -84.667 -178.12c-30.042 -44.2646 -67.7959 -73.2646 -124.2 -64.5488c-64.084 9.89648 -89.6289 77.2969 -98.1152 134.102
c-1.18555 7.92578 -2.12012 15.8887 -2.86816 23.873c-10.1582 -35.9219 -21.2773 -71.7637 -36.2471 -105.801c-15.584 -35.4414 -43.6768 -69.5635 -85.6338 -69.8574c-46.0273 -0.326172 -85.667 11.5146 -100.728 59.7744
c-26.5166 84.9668 1.45801 192.578 58.8555 258.975c31.5908 36.5469 79.3271 64.8525 128.975 54.6094c16.7861 -3.46582 32.1035 -9.39453 45.9844 -17.502c0.0478516 0.277344 0.0957031 0.554688 0.143555 0.827148c4.71582 26.1484 34.752 43.5225 58.54 47.5654
c17.9775 3.05469 53.9795 -3.38672 52.2168 -29.3594c-3.50391 -51.5918 -10.5215 -102.746 -12.5029 -154.45c-1.63965 -42.7852 -5.33008 -98.5273 15.7285 -137.44c3.62109 -6.69238 8.50781 -16.5938 14.751 -21.208c13.6084 -10.0625 22.7734 -0.635742 32.0664 9.9707
c17.0527 19.4668 30.2822 42.9873 42.3682 65.7549c22.2227 41.8555 37.3848 86.9688 59.6348 128.718zM189.385 276.068c3.98926 13.9443 7.7373 28.4189 11.9355 42.7803c-16.4385 11.8516 -35.6172 18.2178 -52.793 5.73145
c-22.6182 -16.4385 -40.9053 -40.1943 -53.6699 -64.9062c-25.7266 -49.8135 -33.7588 -117.925 -19.835 -172.358c2.37695 -9.28809 8.07031 -33.6953 15.6328 -39.9443c14.543 -12.0225 29.2783 17.042 34.9561 28.4609c15.5254 31.2168 25.2666 66.0811 35.2061 99.3916
c9.9873 33.4814 18.9541 67.251 28.5674 100.845z" />
    <glyph glyph-name="a" unicode="&#xe2;" horiz-adv-x="477" 
d="M479.324 273.427c8.82812 16.5674 45.3223 18.4346 35.6982 -5.88184c-24.1885 -61.1416 -47.5059 -123.361 -84.667 -178.12c-30.042 -44.2646 -67.7959 -73.2646 -124.2 -64.5488c-64.084 9.89648 -89.6289 77.2969 -98.1152 134.102
c-1.18555 7.92578 -2.12012 15.8887 -2.86816 23.873c-10.1582 -35.9219 -21.2773 -71.7637 -36.2471 -105.801c-15.584 -35.4414 -43.6768 -69.5635 -85.6338 -69.8574c-46.0273 -0.326172 -85.667 11.5146 -100.728 59.7744
c-26.5166 84.9668 1.45801 192.578 58.8555 258.975c31.5908 36.5469 79.3271 64.8525 128.975 54.6094c16.7861 -3.46582 32.1035 -9.39453 45.9844 -17.502c0.0478516 0.277344 0.0957031 0.554688 0.143555 0.827148c4.71582 26.1484 34.752 43.5225 58.54 47.5654
c17.9775 3.05469 53.9795 -3.38672 52.2168 -29.3594c-3.50391 -51.5918 -10.5215 -102.746 -12.5029 -154.45c-1.63965 -42.7852 -5.33008 -98.5273 15.7285 -137.44c3.62109 -6.69238 8.50781 -16.5938 14.751 -21.208c13.6084 -10.0625 22.7734 -0.635742 32.0664 9.9707
c17.0527 19.4668 30.2822 42.9873 42.3682 65.7549c22.2227 41.8555 37.3848 86.9688 59.6348 128.718zM189.385 276.068c3.98926 13.9443 7.7373 28.4189 11.9355 42.7803c-16.4385 11.8516 -35.6172 18.2178 -52.793 5.73145
c-22.6182 -16.4385 -40.9053 -40.1943 -53.6699 -64.9062c-25.7266 -49.8135 -33.7588 -117.925 -19.835 -172.358c2.37695 -9.28809 8.07031 -33.6953 15.6328 -39.9443c14.543 -12.0225 29.2783 17.042 34.9561 28.4609c15.5254 31.2168 25.2666 66.0811 35.2061 99.3916
c9.9873 33.4814 18.9541 67.251 28.5674 100.845z" />
    <glyph glyph-name="a" unicode="&#xe1;" horiz-adv-x="477" 
d="M479.324 273.427c8.82812 16.5674 45.3223 18.4346 35.6982 -5.88184c-24.1885 -61.1416 -47.5059 -123.361 -84.667 -178.12c-30.042 -44.2646 -67.7959 -73.2646 -124.2 -64.5488c-64.084 9.89648 -89.6289 77.2969 -98.1152 134.102
c-1.18555 7.92578 -2.12012 15.8887 -2.86816 23.873c-10.1582 -35.9219 -21.2773 -71.7637 -36.2471 -105.801c-15.584 -35.4414 -43.6768 -69.5635 -85.6338 -69.8574c-46.0273 -0.326172 -85.667 11.5146 -100.728 59.7744
c-26.5166 84.9668 1.45801 192.578 58.8555 258.975c31.5908 36.5469 79.3271 64.8525 128.975 54.6094c16.7861 -3.46582 32.1035 -9.39453 45.9844 -17.502c0.0478516 0.277344 0.0957031 0.554688 0.143555 0.827148c4.71582 26.1484 34.752 43.5225 58.54 47.5654
c17.9775 3.05469 53.9795 -3.38672 52.2168 -29.3594c-3.50391 -51.5918 -10.5215 -102.746 -12.5029 -154.45c-1.63965 -42.7852 -5.33008 -98.5273 15.7285 -137.44c3.62109 -6.69238 8.50781 -16.5938 14.751 -21.208c13.6084 -10.0625 22.7734 -0.635742 32.0664 9.9707
c17.0527 19.4668 30.2822 42.9873 42.3682 65.7549c22.2227 41.8555 37.3848 86.9688 59.6348 128.718zM189.385 276.068c3.98926 13.9443 7.7373 28.4189 11.9355 42.7803c-16.4385 11.8516 -35.6172 18.2178 -52.793 5.73145
c-22.6182 -16.4385 -40.9053 -40.1943 -53.6699 -64.9062c-25.7266 -49.8135 -33.7588 -117.925 -19.835 -172.358c2.37695 -9.28809 8.07031 -33.6953 15.6328 -39.9443c14.543 -12.0225 29.2783 17.042 34.9561 28.4609c15.5254 31.2168 25.2666 66.0811 35.2061 99.3916
c9.9873 33.4814 18.9541 67.251 28.5674 100.845z" />
    <glyph glyph-name="b" unicode="b" horiz-adv-x="572" 
d="M570.371 237.852c14.9111 16.0225 52.1045 6.72363 32.2529 -14.7305c-49.333 -53.2959 -112.616 -86.1523 -179.397 -110.966c-19.6865 -84.9824 -69.4893 -165.511 -155.983 -185.347c-49.749 -11.4082 -112.834 9.5166 -108.999 70.7002
c3.00195 47.8164 70.6006 79.9521 108.221 95.7021c19.2217 8.04883 38.8975 15.0723 58.7061 21.7217c9.9873 36.6855 15.2266 74.7227 16.0596 112.647c0.53418 24.0547 -0.261719 47.4424 -2.76074 71.3691c-2.18945 20.9521 -3.52441 46.6572 -21.2021 60.9434
c-43.4844 35.1367 -93.5332 -43.1162 -111.948 -74.0498c-46.8711 -78.7393 -64.7197 -169.532 -78.0771 -259.129c-0.21875 -12.5879 -1.27637 -24.9463 -3.72754 -36.792c-4.03223 -19.5049 -42.4756 -40.6064 -57.8887 -21.8711
c-20.4717 24.8721 -27.8369 56.8096 -35.6504 87.5508c-8.35254 32.8672 -13.6562 65.9697 -17.7422 99.6162c-7.97363 65.6699 -9.40527 131.826 -7.74414 197.918c2.88965 114.843 10.2012 235.678 44.4893 346.019c29.5078 94.9648 92.4326 225.35 209.642 223.651
c105.518 -1.52734 135.367 -120.894 126.063 -205.902c-10.6758 -97.5225 -76.5225 -188.54 -177.645 -202.309c-18.4102 -2.50977 -36.0723 11.4561 -32.0029 30.6133c4.30957 20.2949 28.2842 34.5547 47.8154 35.4414c103.253 4.7002 136.734 122.448 117.561 209.407
c-8.03223 36.4512 -37.3799 88.1074 -82.2373 83.2578c-29.9141 -3.23145 -53.7764 -50.0645 -66.1826 -74.1035c-40.1357 -77.7832 -54.5986 -169.56 -64.458 -255.626c-10.4248 -91.0225 -16.9297 -182.136 -14.9805 -273.815
c0.699219 -32.6807 1.9541 -65.3018 3.91992 -97.9023c21.6836 78.7607 56.5166 153.756 118.651 203.457c20.834 16.6631 47.292 29.5664 74.5352 28.3916c24.3486 -1.04688 40.3232 -14.2812 56.7617 -30.6191c42.9346 -42.668 62.4502 -94.3027 66.1035 -154.573
c1.31348 -21.6465 0.523438 -44.7666 -2.45703 -68.1807c51.6777 19.6113 100.429 44.6699 140.303 87.5088zM259.848 3.03809c25.4219 13.8486 41.8389 44.832 52.6006 72.6572c-22.9814 -7.9043 -45.498 -17.0215 -66.3965 -29.5566
c-15.1514 -9.08496 -61.4609 -39.3672 -21.2021 -48.6865c10.4307 -2.41406 25.502 0.411133 34.998 5.58594z" />
    <glyph glyph-name="c" unicode="c" horiz-adv-x="362" 
d="M359.598 262.168c5.27148 17.5391 45.5049 25.5391 39.4756 2.38184c-23.873 -91.8564 -74.3486 -188.76 -137.818 -259.686c-54.3799 -60.7676 -146.14 -115.976 -223.469 -59.9561c-72.5488 52.5586 -69.3447 168.742 -57.2109 247.797
c13.8857 90.457 56.7031 181.267 144.009 220.634c33.2305 14.9863 72.2607 19.1045 99.9258 -8.81738c27.0615 -27.3125 21.582 -63.7793 13.0635 -97.667c-8.64648 -34.4053 -71.4062 -25.7002 -46.1445 7.62109c14.0566 18.543 11.0928 50.9023 -9.67188 63.8486
c-21.502 13.4111 -30.5918 -6.4668 -37.5566 -23.376c-11.7871 -28.6211 -20.0176 -58.7109 -26.3467 -88.998c-14.6553 -70.1084 -27.6865 -153.083 -9.28711 -223.784c7.33789 -28.1992 23.873 -60.666 57.1357 -60.041c37.0059 0.699219 66.5938 42.6992 86.5947 69.7666
c46.0264 62.2891 85.0195 136.136 107.301 210.276z" />
    <glyph glyph-name="d" unicode="d" horiz-adv-x="595" 
d="M589.389 245.131c5.59668 17.9502 46.8574 25.2725 40.0264 2.4248c-21.833 -72.9707 -52.5156 -148.324 -99.2529 -209.146c-42.5342 -55.3516 -114.961 -88.502 -184.914 -71.1494c-63.9238 15.8564 -95.9307 76.624 -113.299 135.293
c-9.93359 33.5664 -16.4863 67.4961 -20.8018 101.72c-11.8564 -43.0254 -24.2793 -86.4248 -42.2246 -127.233c-15.584 -35.4414 -43.6768 -69.5635 -85.6338 -69.8574c-46.0264 -0.326172 -85.666 11.5146 -100.727 59.7744
c-26.5166 84.9668 1.45312 192.578 58.8506 258.985c31.5908 36.5469 79.3271 64.8525 128.975 54.6094c11.6592 -2.40332 22.5967 -6.01855 32.8564 -10.6973c0.229492 66.5889 3.38086 133.53 11.1465 199.505c8.64648 73.4785 26.2334 148.229 63.9932 212.628
c35.5908 60.709 90.708 116.611 159.834 136.564c62.877 18.1533 119.094 -8.10742 144.072 -68.4746c46.9668 -113.508 -13.8008 -261.378 -128.761 -306.988c-19.3975 -7.69629 -52.1631 -12.4014 -59.6885 14.1318c-7.00684 24.7061 20.4824 46.8271 41.6963 52.0664
c52.7344 13.0264 97.9121 43.373 113.336 97.8916c14.126 49.9307 8.1123 142.311 -47.5283 167.562c-50.5986 22.9658 -85.3408 -41.6416 -102.655 -78.7441c-20.5615 -44.0557 -34.3779 -90.8301 -44.0391 -138.39c-23.4297 -115.334 -26.7842 -235.128 -25.2031 -352.566
c0.785156 -58.5352 5.11133 -118.187 16.7705 -175.632c7.75488 -38.1924 19.1094 -87.8779 49.2793 -115.329c46.1875 -42.0322 104.595 40.3916 124.814 74.5137c29.2246 49.3057 52.0244 101.859 69.0771 156.538zM189.378 276.064
c3.98926 13.9443 7.73828 28.4189 11.9365 42.7803c-16.4385 11.8516 -35.6172 18.2178 -52.793 5.73145c-22.6182 -16.4385 -40.9053 -40.1943 -53.6699 -64.9062c-25.7266 -49.8135 -33.7588 -117.925 -19.835 -172.358
c2.37695 -9.28809 8.07031 -33.6953 15.6328 -39.9443c14.543 -12.0225 29.2783 17.042 34.9551 28.4609c15.5254 31.2168 25.2666 66.0811 35.2061 99.3916c9.9873 33.4814 18.9541 67.251 28.5674 100.845z" />
    <glyph glyph-name="e" unicode="e" horiz-adv-x="353" 
d="M351.462 260.988c6.27051 15.7871 46.7402 18.7285 38.8896 -1.84375c-36.5625 -95.7441 -82.9951 -193.133 -164.763 -258.675c-34.8535 -27.9375 -80.4375 -51.8486 -126.063 -49.8086c-51.1055 2.28613 -81.2812 38.4648 -96.3848 84.2568
c-32.6006 98.8154 -27.9111 218.551 17.9609 312.607c23.9697 49.1406 62.9199 89.6074 116.098 105.149c36.3018 10.6123 83.3809 7.55762 107.554 -25.2344c57.0186 -77.3398 -61.6113 -126.571 -123.175 -129.039c-14.7988 -57.8408 -18.1367 -119.394 -12.3369 -177.769
c3.16699 -31.8262 4.85449 -75.5938 27.3926 -100.61c30.9395 -34.3408 72.0098 9.66699 94.5908 33.4014c55.7842 58.6367 90.6865 133.156 120.237 207.564zM142.191 359.321c-3.46094 -8.01074 -6.60156 -16.1826 -9.52832 -24.4443
c32.9043 2.39844 106.757 20.0869 71.0693 61.5684c-31.7451 36.9043 -51.1963 -13.1758 -61.541 -37.124z" />
    <glyph glyph-name="e" unicode="&#xeb;" horiz-adv-x="353" 
d="M351.462 260.988c6.27051 15.7871 46.7402 18.7285 38.8896 -1.84375c-36.5625 -95.7441 -82.9951 -193.133 -164.763 -258.675c-34.8535 -27.9375 -80.4375 -51.8486 -126.063 -49.8086c-51.1055 2.28613 -81.2812 38.4648 -96.3848 84.2568
c-32.6006 98.8154 -27.9111 218.551 17.9609 312.607c23.9697 49.1406 62.9199 89.6074 116.098 105.149c36.3018 10.6123 83.3809 7.55762 107.554 -25.2344c57.0186 -77.3398 -61.6113 -126.571 -123.175 -129.039c-14.7988 -57.8408 -18.1367 -119.394 -12.3369 -177.769
c3.16699 -31.8262 4.85449 -75.5938 27.3926 -100.61c30.9395 -34.3408 72.0098 9.66699 94.5908 33.4014c55.7842 58.6367 90.6865 133.156 120.237 207.564zM142.191 359.321c-3.46094 -8.01074 -6.60156 -16.1826 -9.52832 -24.4443
c32.9043 2.39844 106.757 20.0869 71.0693 61.5684c-31.7451 36.9043 -51.1963 -13.1758 -61.541 -37.124z" />
    <glyph glyph-name="e" unicode="&#xea;" horiz-adv-x="353" 
d="M351.462 260.988c6.27051 15.7871 46.7402 18.7285 38.8896 -1.84375c-36.5625 -95.7441 -82.9951 -193.133 -164.763 -258.675c-34.8535 -27.9375 -80.4375 -51.8486 -126.063 -49.8086c-51.1055 2.28613 -81.2812 38.4648 -96.3848 84.2568
c-32.6006 98.8154 -27.9111 218.551 17.9609 312.607c23.9697 49.1406 62.9199 89.6074 116.098 105.149c36.3018 10.6123 83.3809 7.55762 107.554 -25.2344c57.0186 -77.3398 -61.6113 -126.571 -123.175 -129.039c-14.7988 -57.8408 -18.1367 -119.394 -12.3369 -177.769
c3.16699 -31.8262 4.85449 -75.5938 27.3926 -100.61c30.9395 -34.3408 72.0098 9.66699 94.5908 33.4014c55.7842 58.6367 90.6865 133.156 120.237 207.564zM142.191 359.321c-3.46094 -8.01074 -6.60156 -16.1826 -9.52832 -24.4443
c32.9043 2.39844 106.757 20.0869 71.0693 61.5684c-31.7451 36.9043 -51.1963 -13.1758 -61.541 -37.124z" />
    <glyph glyph-name="e" unicode="&#xe9;" horiz-adv-x="353" 
d="M351.462 260.988c6.27051 15.7871 46.7402 18.7285 38.8896 -1.84375c-36.5625 -95.7441 -82.9951 -193.133 -164.763 -258.675c-34.8535 -27.9375 -80.4375 -51.8486 -126.063 -49.8086c-51.1055 2.28613 -81.2812 38.4648 -96.3848 84.2568
c-32.6006 98.8154 -27.9111 218.551 17.9609 312.607c23.9697 49.1406 62.9199 89.6074 116.098 105.149c36.3018 10.6123 83.3809 7.55762 107.554 -25.2344c57.0186 -77.3398 -61.6113 -126.571 -123.175 -129.039c-14.7988 -57.8408 -18.1367 -119.394 -12.3369 -177.769
c3.16699 -31.8262 4.85449 -75.5938 27.3926 -100.61c30.9395 -34.3408 72.0098 9.66699 94.5908 33.4014c55.7842 58.6367 90.6865 133.156 120.237 207.564zM142.191 359.321c-3.46094 -8.01074 -6.60156 -16.1826 -9.52832 -24.4443
c32.9043 2.39844 106.757 20.0869 71.0693 61.5684c-31.7451 36.9043 -51.1963 -13.1758 -61.541 -37.124z" />
    <glyph glyph-name="f" unicode="f" horiz-adv-x="399" 
d="M409.063 267.119c18.4043 15.6855 43.7979 -2.64355 23.1182 -21.3896c-85.084 -77.1533 -174.895 -148.997 -267.392 -217.092c62.4121 1.01465 127.366 -8.41699 168.73 -58.9189c45.2363 -55.2285 32.8564 -135.8 -10.7666 -187.552
c-46.9668 -55.7256 -120.499 -65.2588 -179.926 -21.1924c-59.7793 44.334 -88.3467 123.922 -105.912 193.208c-39.6123 156.261 -54.3477 328.64 -18.7891 486.988c16.4658 73.3125 42.668 149.205 84.4707 212.114c36.4932 54.9141 94.7393 115.02 162.503 127.341
c64.6025 11.75 116.958 -36.2686 121.771 -100.348c5.03125 -67.0479 -34.5283 -125.775 -92.1982 -156.068c-16.5723 -8.7002 -46.5557 -9.63477 -52.8359 12.5078c-6.45703 22.7676 18.4521 40.3174 36.9043 46.085c59.1436 18.4951 85.6875 92.2402 38.7471 139.095
c-51.6025 51.5068 -101.795 -21.3311 -125.374 -63.6406c-51.4424 -92.2998 -57.5518 -202.522 -62.9297 -305.695c-5.11133 -98.0625 1.5918 -197.999 17.6621 -295.346c89.9766 66.7061 176.925 137.215 262.217 209.903zM273.892 -36.4404
c-33.375 24.6367 -74.252 29.877 -114.986 29.3643c10.8574 -51.1865 25.7578 -102.186 50.8965 -148.309c20.7227 -38.0215 62.7441 -83.4609 93.3525 -25.9512c25.9131 48.6924 15.7764 111.649 -29.2627 144.896z" />
    <glyph glyph-name="g" unicode="g" horiz-adv-x="425" 
d="M502.056 -219.303c17.8271 -45.626 -75.4287 -82.3955 -85.5283 -31.9941c-3.35352 16.7539 -1.79395 33.6631 -6.04004 49.9736c-4.21387 16.1982 -11.9258 29.374 -22.3613 42.4375c-13.9609 17.4805 -30.0479 32.5625 -48.0088 45.3105
c-1.62402 -27.1846 -3.98438 -54.3262 -7.52539 -81.4043c-16.5244 -126.347 -77.2441 -294.047 -227.154 -303.634c-133.124 -8.51855 -224.687 125.994 -207.986 249.312c17.2725 127.575 142.364 211.233 263.359 222.625
c23.873 2.24805 48.1357 1.69824 72.1104 -1.4043c-3.40723 80.6191 -12.4922 161.377 -17.6035 242.065c-12.6846 -46.1875 -25.5928 -93.0635 -44.8945 -136.943c-15.584 -35.4414 -43.6768 -69.5635 -85.6338 -69.8574
c-46.0273 -0.326172 -85.667 11.5146 -100.728 59.7744c-26.5166 84.9668 1.45312 192.578 58.8506 258.985c31.5908 36.5469 79.3271 64.8525 128.975 54.6094c15.9102 -3.2793 30.501 -8.77539 43.7998 -16.2363c7.83496 20.583 27.708 35.4678 49.4932 41.2197
c22.8535 6.03516 57.8838 0.464844 60.3408 -28.5889c8.22461 -97.1807 11.1191 -195.536 15.002 -293.006c1.93848 -48.7295 2.93164 -97.5176 1.75684 -146.23c6.92188 -3.62109 13.7158 -7.45605 20.3174 -11.5898c30.4961 -19.0879 56.6289 -42.5928 79.7441 -70.0342
c20.3965 -24.2148 48.083 -45.626 59.7148 -75.3906zM190.885 276.067c3.98926 13.9443 7.7373 28.4189 11.9355 42.7803c-16.4385 11.8516 -35.6172 18.2178 -52.793 5.73145c-22.6182 -16.4385 -40.9053 -40.1943 -53.6699 -64.9062
c-25.7266 -49.8135 -33.7588 -117.925 -19.835 -172.358c2.37695 -9.28809 8.07031 -33.6953 15.6328 -39.9443c14.543 -12.0225 29.2783 17.042 34.9561 28.4609c15.5254 31.2168 25.2666 66.0811 35.2061 99.3916c9.9873 33.4814 18.9541 67.251 28.5674 100.845z
M226.347 -259.163c9.05762 63.2139 9.05957 126.717 7.81543 190.411c-38.582 7.80273 -78.7021 7.8291 -117.055 -1.3252c-109.876 -26.2285 -193.187 -122.438 -172.31 -238.946c9.85352 -54.9941 44.04 -106.8 93.4102 -133.941
c25.3203 -13.9238 57.5039 -24.2852 86.1465 -15.3555c22.0732 6.88477 39.7295 24.1992 52.4082 42.8916c30.3574 44.7607 42.0586 103.771 49.584 156.266z" />
    <glyph glyph-name="h" unicode="h" horiz-adv-x="528" 
d="M524.223 238.797c9.89062 16.2949 49.5693 16.2266 36.207 -5.97461c-52.5371 -87.252 -82.9531 -186.318 -136.559 -272.774c-17.6035 -28.3916 -43.9385 -58.5078 -79.5078 -61.5254c-18.3721 -1.55957 -31.9912 6.7666 -47.9551 13.8115
c-18.9277 8.35254 -29.043 17.9287 -39.4307 36.5947c-21.3682 38.3838 -8.625 92.668 -1.38281 133.541c8.57715 48.4141 18.3184 96.0537 22.9697 145.119c2.32324 24.5303 3.86133 49.1992 5.80566 73.7725c1.30859 16.5508 3.59473 39.0029 -1.01465 55.1904
c-5.9873 21.0322 -25.4229 15.8301 -37.9688 2.46777c-7.74414 -8.25195 -14.3242 -17.7373 -20.6582 -27.084c-11.0977 -16.3691 -20.748 -33.748 -29.373 -51.5332c-39.7354 -81.9219 -54.1768 -173.815 -68.4424 -263.001
c-0.512695 -9.36816 -1.55371 -18.5703 -3.39648 -27.4736c-4.03223 -19.5049 -42.4756 -40.6064 -57.8887 -21.8711c-20.4717 24.8721 -27.8369 56.8096 -35.6504 87.5508c-8.35254 32.8672 -13.6562 65.9697 -17.7422 99.6162
c-7.97363 65.6699 -9.40527 131.826 -7.74414 197.918c2.88965 114.843 10.2012 235.678 44.4893 346.019c29.5078 94.9648 92.4326 225.35 209.642 223.651c105.518 -1.52734 135.367 -120.894 126.063 -205.902c-10.6758 -97.5225 -76.5225 -188.54 -177.645 -202.309
c-18.4092 -2.50977 -36.0713 11.4561 -32.002 30.6133c4.30957 20.2949 28.2842 34.5547 47.8154 35.4414c103.253 4.7002 136.734 122.448 117.561 209.407c-8.03223 36.4512 -37.3799 88.1074 -82.2373 83.2578c-29.9141 -3.23145 -53.7764 -50.0645 -66.1826 -74.1035
c-40.1357 -77.7832 -54.5986 -169.56 -64.458 -255.626c-10.4248 -91.0225 -16.9297 -182.136 -14.9805 -273.815c0.689453 -32.3389 1.93359 -64.624 3.86133 -96.8877c11.7393 46.4111 27.5107 91.6211 50.668 134.219c17.2881 31.8096 39.0996 68.9385 70.6797 88.4482
c34.4531 21.2773 64.5215 11.5889 96.4912 -8.04883c32.0928 -19.7129 41.3213 -72.2393 45.9678 -106.688c6.55859 -48.6328 4.63086 -97.1543 -0.688477 -145.776c-5.12695 -46.8174 -11.8721 -93.6133 -17.5547 -140.351
c-1.15918 -9.52246 -8.34277 -52.4463 -6.73535 -53.376c12.7803 -7.38086 39.4092 41.7383 43.3027 48.4033c46.9824 80.4111 77.2432 169.319 125.674 249.078z" />
    <glyph glyph-name="i" unicode="i" horiz-adv-x="289" 
d="M281.942 255.049c5.02051 18.1104 45.9268 25.8301 40.0254 2.42676c-21.9609 -87.1348 -43.9756 -186.489 -104.118 -256.604c-42.6777 -49.7549 -143.053 -81.7197 -184.983 -14.6611c-33.3584 53.3486 -38.7578 125.46 -39.1426 186.772
c-0.357422 57.0234 2.02441 114.479 10.377 170.926c4.14453 28.0283 38.0107 46.8809 62.8984 51.1104c19.9102 3.38574 57.2529 -3.64844 56.1045 -31.543c-3.93066 -95.6689 -21.3848 -195.547 -12.4922 -297.882c1.71973 -19.7979 3.30566 -44.4834 13.4209 -62.252
c18.8955 -33.1982 53.9365 4.49121 67.833 23.6807c47.7998 65.9961 68.6338 150.712 90.0771 228.025zM40.0967 451.367c-25.7529 20.9355 -47.3633 46.3779 -62.9531 75.7627c-10.0137 18.8691 -28.21 51.459 -13.0693 72.0312
c28.8086 39.1377 60.5918 -0.923828 82.8252 -42.1494c6.71289 16.3105 15.4668 31.7832 26.7148 46.0107c17.9717 22.7412 52.9912 56.6875 85.25 50.4492c44.959 -8.69434 8.66309 -63.5762 -3.49219 -85.1738c-20.2627 -36.002 -42.7207 -71.6943 -67.3633 -104.871
c-8.28906 -11.1621 -20.2256 -15.3809 -30.8916 -14.7617c-6.22754 -1.45312 -12.5293 -0.951172 -17.0205 2.70215z" />
    <glyph glyph-name="i" unicode="&#xef;" horiz-adv-x="289" 
d="M281.942 255.049c5.02051 18.1104 45.9268 25.8301 40.0254 2.42676c-21.9609 -87.1348 -43.9756 -186.489 -104.118 -256.604c-42.6777 -49.7549 -143.053 -81.7197 -184.983 -14.6611c-33.3584 53.3486 -38.7578 125.46 -39.1426 186.772
c-0.357422 57.0234 2.02441 114.479 10.377 170.926c4.14453 28.0283 38.0107 46.8809 62.8984 51.1104c19.9102 3.38574 57.2529 -3.64844 56.1045 -31.543c-3.93066 -95.6689 -21.3848 -195.547 -12.4922 -297.882c1.71973 -19.7979 3.30566 -44.4834 13.4209 -62.252
c18.8955 -33.1982 53.9365 4.49121 67.833 23.6807c47.7998 65.9961 68.6338 150.712 90.0771 228.025zM40.0967 451.367c-25.7529 20.9355 -47.3633 46.3779 -62.9531 75.7627c-10.0137 18.8691 -28.21 51.459 -13.0693 72.0312
c28.8086 39.1377 60.5918 -0.923828 82.8252 -42.1494c6.71289 16.3105 15.4668 31.7832 26.7148 46.0107c17.9717 22.7412 52.9912 56.6875 85.25 50.4492c44.959 -8.69434 8.66309 -63.5762 -3.49219 -85.1738c-20.2627 -36.002 -42.7207 -71.6943 -67.3633 -104.871
c-8.28906 -11.1621 -20.2256 -15.3809 -30.8916 -14.7617c-6.22754 -1.45312 -12.5293 -0.951172 -17.0205 2.70215z" />
    <glyph glyph-name="i" unicode="&#xee;" horiz-adv-x="289" 
d="M281.942 255.049c5.02051 18.1104 45.9268 25.8301 40.0254 2.42676c-21.9609 -87.1348 -43.9756 -186.489 -104.118 -256.604c-42.6777 -49.7549 -143.053 -81.7197 -184.983 -14.6611c-33.3584 53.3486 -38.7578 125.46 -39.1426 186.772
c-0.357422 57.0234 2.02441 114.479 10.377 170.926c4.14453 28.0283 38.0107 46.8809 62.8984 51.1104c19.9102 3.38574 57.2529 -3.64844 56.1045 -31.543c-3.93066 -95.6689 -21.3848 -195.547 -12.4922 -297.882c1.71973 -19.7979 3.30566 -44.4834 13.4209 -62.252
c18.8955 -33.1982 53.9365 4.49121 67.833 23.6807c47.7998 65.9961 68.6338 150.712 90.0771 228.025zM40.0967 451.367c-25.7529 20.9355 -47.3633 46.3779 -62.9531 75.7627c-10.0137 18.8691 -28.21 51.459 -13.0693 72.0312
c28.8086 39.1377 60.5918 -0.923828 82.8252 -42.1494c6.71289 16.3105 15.4668 31.7832 26.7148 46.0107c17.9717 22.7412 52.9912 56.6875 85.25 50.4492c44.959 -8.69434 8.66309 -63.5762 -3.49219 -85.1738c-20.2627 -36.002 -42.7207 -71.6943 -67.3633 -104.871
c-8.28906 -11.1621 -20.2256 -15.3809 -30.8916 -14.7617c-6.22754 -1.45312 -12.5293 -0.951172 -17.0205 2.70215z" />
    <glyph glyph-name="i" unicode="&#xed;" horiz-adv-x="289" 
d="M281.942 255.049c5.02051 18.1104 45.9268 25.8301 40.0254 2.42676c-21.9609 -87.1348 -43.9756 -186.489 -104.118 -256.604c-42.6777 -49.7549 -143.053 -81.7197 -184.983 -14.6611c-33.3584 53.3486 -38.7578 125.46 -39.1426 186.772
c-0.357422 57.0234 2.02441 114.479 10.377 170.926c4.14453 28.0283 38.0107 46.8809 62.8984 51.1104c19.9102 3.38574 57.2529 -3.64844 56.1045 -31.543c-3.93066 -95.6689 -21.3848 -195.547 -12.4922 -297.882c1.71973 -19.7979 3.30566 -44.4834 13.4209 -62.252
c18.8955 -33.1982 53.9365 4.49121 67.833 23.6807c47.7998 65.9961 68.6338 150.712 90.0771 228.025zM40.0967 451.367c-25.7529 20.9355 -47.3633 46.3779 -62.9531 75.7627c-10.0137 18.8691 -28.21 51.459 -13.0693 72.0312
c28.8086 39.1377 60.5918 -0.923828 82.8252 -42.1494c6.71289 16.3105 15.4668 31.7832 26.7148 46.0107c17.9717 22.7412 52.9912 56.6875 85.25 50.4492c44.959 -8.69434 8.66309 -63.5762 -3.49219 -85.1738c-20.2627 -36.002 -42.7207 -71.6943 -67.3633 -104.871
c-8.28906 -11.1621 -20.2256 -15.3809 -30.8916 -14.7617c-6.22754 -1.45312 -12.5293 -0.951172 -17.0205 2.70215z" />
    <glyph glyph-name="j" unicode="j" horiz-adv-x="232" 
d="M294.888 -219.303c17.8271 -45.626 -75.4316 -82.3965 -85.5146 -31.9951c-3.35352 16.7539 -1.7998 33.6631 -6.04004 49.9736c-4.21387 16.1982 -11.9258 29.374 -22.3613 42.4375c-13.9609 17.4805 -30.0479 32.5625 -48.0088 45.3105
c-1.62402 -27.1846 -3.98438 -54.3262 -7.52539 -81.4043c-16.5244 -126.347 -77.2441 -294.047 -227.154 -303.634c-133.124 -8.51855 -224.687 125.994 -207.986 249.312c17.2725 127.575 142.364 211.233 263.359 222.625
c23.873 2.24805 48.1357 1.69824 72.1104 -1.4043c-5.28223 124.856 -24.2852 250.039 -20.7812 374.811c0.833008 29.6309 25.4375 51.5225 53.0332 58.8076c22.8535 6.03516 57.8838 0.464844 60.3408 -28.5889c8.22461 -97.1807 11.1191 -195.536 15.002 -293.006
c1.93848 -48.7295 2.93164 -97.5176 1.75684 -146.23c6.91113 -3.62109 13.71 -7.45605 20.3115 -11.5898c30.501 -19.0879 56.6279 -42.5928 79.7432 -70.0342c20.3965 -24.2148 48.083 -45.626 59.7148 -75.3906zM19.1768 -259.165
c9.06348 63.2139 9.05859 126.717 7.81445 190.411c-38.582 7.80273 -78.7021 7.8291 -117.055 -1.3252c-109.876 -26.2285 -193.187 -122.438 -172.31 -238.946c9.85352 -54.9941 44.04 -106.8 93.4102 -133.941c25.3203 -13.9238 57.5039 -24.2852 86.1465 -15.3555
c22.0791 6.88477 39.7305 24.1992 52.4092 42.8916c30.3574 44.7607 42.0586 103.771 49.584 156.266zM17.8037 474.093c-20.2305 8.19238 -38.9727 19.4102 -54.584 35.2666c-16.2041 16.4385 -38.2773 41.7217 -25.4385 65.7607
c12.0225 22.5166 40.8203 25.4277 59.9346 10.7939c12.4492 -9.5332 21.9609 -22.2285 30.6074 -35.666c0.0751953 0.235352 0.128906 0.49707 0.204102 0.732422c5.30371 16.4385 12.3379 32.2734 21.9619 46.6406c15.3438 22.9062 44.0186 52.6113 74.333 50.1543
c69.7559 -5.65625 -39.084 -161.96 -62.6689 -181.139c-12.7217 -10.3447 -43.8369 -9.14844 -44.3496 7.45605z" />
    <glyph glyph-name="k" unicode="k" horiz-adv-x="543" 
d="M533.952 232.697c6.72363 17.7158 48.8994 24.6055 40.5625 2.45215c-26.8584 -71.4385 -53.7441 -143.635 -93.3145 -209.22c-31.8096 -52.7246 -73.4834 -103.066 -137.514 -113.839c-28.2793 -4.75293 -68.1963 1.69824 -90.9697 20.1562
c-26.2178 21.2461 -37.5352 54.4814 -45.2949 86.0352c-8.50781 34.6025 -14.8896 69.7451 -24.0439 104.183c-5.66113 21.2881 -13.8535 40.9854 -21.8965 60.8691c-15.3652 -51.8057 -25.7744 -105.4 -34.2607 -158.119
c-0.277344 -12.0703 -1.35059 -23.916 -3.70605 -35.2861c-4.03223 -19.5049 -42.4756 -40.6064 -57.8887 -21.8711c-20.4717 24.8721 -27.8369 56.8096 -35.6504 87.5508c-8.35254 32.8672 -13.6562 65.9697 -17.7422 99.6162
c-7.97363 65.6699 -9.40527 131.826 -7.74414 197.918c2.88965 114.843 10.2012 235.678 44.4893 346.019c29.5078 94.9648 92.4326 225.35 209.642 223.651c105.523 -1.52734 135.368 -120.894 126.064 -205.902c-10.6709 -97.5225 -76.5176 -188.54 -177.64 -202.309
c-18.4102 -2.50977 -36.0723 11.4561 -32.0029 30.6133c4.30957 20.2949 28.2842 34.5547 47.8154 35.4414c103.259 4.7002 136.734 122.448 117.561 209.407c-8.03223 36.4512 -37.3799 88.1074 -82.2373 83.2578c-29.9141 -3.23145 -53.7764 -50.0645 -66.1826 -74.1035
c-40.1357 -77.7832 -54.5986 -169.56 -64.458 -255.626c-10.4248 -91.0225 -16.9297 -182.136 -14.9805 -273.815c0.699219 -32.8887 1.96484 -65.7236 3.95117 -98.5264c11.1084 40.0508 25.0156 79.2686 43.2061 116.953c18.9326 39.2285 42.459 76.582 70.7227 109.78
c25.6465 30.127 56.9219 62.6309 97.3408 70.749c31.3828 6.30176 67.3213 -4.94629 78.3877 -37.498c12.0166 -35.335 -8.64648 -74.6055 -29.7588 -101.758c-37.4121 -48.1309 -90.8359 -81.751 -148.772 -99.915c31.8682 -18.8799 53.0928 -57.2002 65.083 -93.2402
c17.7207 -53.2793 28.7383 -109.368 42.9502 -163.614c4.01074 -15.3066 9.72559 -22.4473 27.4033 -19.1201c15.1787 2.85742 29.1553 13.582 39.8262 24.167c20.6367 20.4717 36.0293 46.166 50.2627 71.2842c33.0488 58.332 57.0557 121.129 80.79 183.659z
M186.476 254.173c59.502 9.68848 116.253 39.5225 154.151 87.0928c17.3682 21.79 43.6504 71.8008 8.14453 90.4131c-30.3037 15.8838 -61.9482 -22.4258 -79.3594 -42.0527c-35.874 -40.4404 -62.5137 -86.4619 -82.9365 -135.453z" />
    <glyph glyph-name="l" unicode="l" horiz-adv-x="396" 
d="M390.658 245.131c5.59668 17.9502 46.8574 25.2715 40.0264 2.42383c-21.833 -72.9707 -52.5156 -148.324 -99.2529 -209.146c-42.5391 -55.3516 -114.96 -88.502 -184.913 -71.1494c-63.9238 15.8564 -95.9307 76.624 -113.299 135.293
c-22.1963 74.9902 -27.5957 151.802 -28.5674 229.665c-0.982422 78.9258 1.78418 158.717 11.0127 237.141c8.64648 73.4785 26.2393 148.229 63.9932 212.628c35.5908 60.709 90.708 116.611 159.834 136.564c62.877 18.1484 119.089 -8.10645 144.067 -68.4736
c46.9668 -113.508 -13.8008 -261.378 -128.761 -306.988c-19.3975 -7.69629 -52.1631 -12.4014 -59.6885 14.1318c-7.00684 24.7061 20.4824 46.8271 41.6963 52.0664c52.7344 13.0264 97.9121 43.373 113.336 97.8916c14.126 49.9307 8.1123 142.311 -47.5283 167.562
c-50.5986 22.9658 -85.3408 -41.6416 -102.655 -78.7441c-20.5615 -44.0557 -34.3779 -90.8301 -44.0391 -138.39c-23.4297 -115.334 -26.7832 -235.128 -25.2021 -352.566c0.785156 -58.5352 5.11133 -118.187 16.7705 -175.632
c7.74902 -38.1924 19.1084 -87.8779 49.2783 -115.329c46.1875 -42.0322 104.595 40.3916 124.814 74.5137c29.2246 49.3057 52.0244 101.859 69.0771 156.538z" />
    <glyph glyph-name="m" unicode="m" horiz-adv-x="763" 
d="M755.038 244.047c6.66016 16.7217 49.4004 19.5469 40.9775 -1.9502c-20.0117 -51.0527 -40.0234 -102.1 -60.0303 -153.146c-16.6094 -42.3789 -31.6221 -85.543 -58.2988 -122.891c-22.6875 -31.7617 -58.9941 -58.167 -99.75 -55.3525
c-45.3857 3.13477 -72.9336 34.4102 -77.041 79.0586c-4.8125 52.3506 5.6875 105.679 12.2031 157.474c6.78809 53.9844 13.3945 107.611 15.2852 162.034c0.213867 6.25977 3.02344 18.8643 1.39453 24.3115c-8.0752 26.9551 -25.7588 3.29004 -34.085 -5.81055
c-16.3379 -17.8594 -28.5898 -39.041 -38.8281 -60.8584c-21.1816 -45.1348 -32.5576 -94.1895 -48.4414 -141.343c-0.443359 -29.5127 -29.4756 -52.2061 -55.8428 -59.1709c-21.7314 -5.74121 -64.292 -0.854492 -63.5869 30.127
c1.50586 66.0918 5.26562 132.237 5.33496 198.356c0.0322266 31.9375 3.17773 64.5801 1.61816 96.4434c-0.699219 14.335 -4.05859 36.2744 -21.165 24.1025c-11.3652 -8.09082 -19.5312 -22.2383 -26.7842 -33.8594
c-60.7197 -97.2773 -84.9883 -212.563 -106.886 -324.004c0.811523 -17.3945 -0.822266 -34.5439 -8.49707 -51.25c-8.97754 -19.5527 -41.5986 -33.3154 -61.4238 -23.3018c-33.3584 16.8506 -42.8809 56.0146 -51.5488 89.7314
c-8.1709 31.7773 -13.3945 63.6191 -16.5771 96.2617c-6.83105 70.0654 -7.89941 140.232 3.20898 209.854c7.17773 45.0117 113.705 80.042 116.803 19.2051c3.32715 -65.4463 -1.34082 -130.854 2.8623 -196.306c0.454102 -7.06055 0.982422 -14.1318 1.54297 -21.1973
c6.75098 26.6611 14.3086 53.1143 23.2168 79.1777c20.7432 60.6924 48.2373 138.449 100.268 179.729c20.1396 15.9795 49.7598 25.5986 71.9453 7.5625c25.4541 -20.6953 40.2109 -56.7881 50.6953 -86.7334c14.6768 -41.9248 22.7412 -85.874 27.6387 -130.224
c17.8066 51.3359 41.4023 100.038 84.2031 133.312c30.2236 23.499 58.7061 23.6328 86.9482 -0.166016c36.7178 -30.9395 48.1631 -82.6436 52.1104 -128.97c4.48047 -52.5693 -1.18652 -105.747 -4.83398 -158.241c-1.5752 -22.6553 -2.75586 -45.3379 -4.38965 -67.9883
c-0.737305 -10.2334 -2.78809 -20.4395 -2.88379 -30.7041c-0.186523 -4.63086 0.155273 -9.21875 1.02539 -13.7695c-0.870117 -7.4502 1.73633 -8.45996 7.81445 -3.01758c19.8467 4.62012 36.3066 44.0508 44.0352 60.4414
c10.7461 22.8047 19.5107 46.5654 28.8252 69.9736c20.3105 51.0312 40.627 102.067 60.9375 153.099z" />
    <glyph glyph-name="n" unicode="n" horiz-adv-x="482" 
d="M482.806 267.898c6.16309 19.4512 50.9111 27.1426 43.3057 2.62305c-29.2197 -94.1797 -51.4961 -195.825 -96.3428 -284.113c-31.2227 -61.4619 -111.976 -114.101 -171.75 -52.3984c-32.7227 33.7861 -31.6328 79.418 -27.9209 123.079
c3.73828 43.9971 10.6865 87.5996 18.8047 130.972c8.31055 44.4189 15.0342 89.9062 20.1982 134.726c0.384766 3.33789 2.54199 11.7119 0.74707 14.8203c-3.375 5.84863 -18.9756 2.70312 -22.917 1.1543c-9.81055 -3.8457 -18.9062 -17.3262 -25.3955 -25.6895
c-12.9512 -16.6953 -23.7715 -35.3662 -33.6523 -53.9951c-19.4561 -36.6748 -34.1855 -75.5186 -46.5225 -115.104c-10.8848 -34.918 -17.9883 -71.2725 -28.9102 -106.18c-0.640625 -17.3037 -3.39648 -34.3457 -12.0488 -49.4551
c-7.78711 -13.6025 -30.3301 -25.8008 -45.8398 -17.3887c-48.291 26.1855 -51.5967 109.673 -56.3076 158.178c-5.90137 60.7783 -5.7998 122.716 -1.5752 183.579c2.09375 30.1807 24.8184 52.0137 53.8135 59.6719c21.8223 5.75781 60.6338 0.72168 61.2266 -29.0107
c1.12695 -56.5479 -1.30859 -113.149 -1.60254 -169.729c12.834 37.2305 28.1406 73.7666 47.7197 107.947c27.1738 47.4424 95.3652 139.907 154.493 80.165c58.6953 -59.3037 44.3604 -156.426 37.3799 -231.88c-3.94141 -42.5664 -5.50098 -85.9922 -2.32812 -128.66
c0.817383 -11.0078 1.66113 -20.0176 7.61621 -29.4336c2.98047 -4.70508 11.4668 -12.3906 9.94434 -12.8926c8.35254 2.76074 24.0117 37.0645 29.1865 47.2705c20.5029 40.4561 32.6855 84.8916 46.3262 127.976c14.1211 44.5898 28.2363 89.1797 42.3516 133.77z" />
    <glyph glyph-name="o" unicode="o" horiz-adv-x="371" 
d="M393.057 280.69c27.7988 5.25 25.5801 -25.1064 2.625 -31.3877c-56.1318 -15.3652 -106.986 -44.7285 -163.166 -60.5479c-4.56055 -31.3662 -13.0635 -62.1396 -26.0947 -91.0176c-18.623 -41.2686 -46.3096 -80.5928 -92.0801 -93.373
c-54.957 -15.3438 -102.223 17.3154 -119.526 69.457c-19.1523 57.707 -13.9072 116.696 -5.0625 175.792c1.77832 11.8779 8.6416 22.2178 18.207 30.4375c-10.2119 54.6465 14.5908 116.312 69.9268 139.854c38.9502 16.5674 84.0156 5.21289 113.128 -24.9414
c34.9609 -36.2109 44.2432 -91.2266 45.4346 -139.598c0.261719 -10.6816 0.0908203 -21.3955 -0.491211 -32.0986c53.1357 17.2881 105.331 47.6504 157.1 57.4238zM161.933 97.5029c13.1221 25.166 21.999 53.3916 27.0732 82.1787
c-30.3408 -4.13867 -61.4561 -3.67969 -90.376 4.84375c-1.34082 -23.6328 -0.956055 -47.2764 3.13477 -70.6953c2.21094 -12.6523 6.63281 -47.2021 22.9326 -50.2676c15.5254 -2.92188 31.7188 23.3604 37.2354 33.9404zM193.146 212.891
c0.758789 10.4678 1.12598 20.9111 0.875 31.1709c-1.0791 44.2803 -8.49219 98.8047 -44.0615 129.69c-42.4268 36.8457 -86.7656 12.3477 -98.793 -37.4766c-3.07129 -12.7168 -3.61621 -25.1934 -2.03027 -37.0605c30.9707 5.7627 61.4883 -5.47461 56.9648 -42.5664
c-1.2334 -10.1211 -2.50977 -20.29 -3.68457 -30.4854c1.59668 -0.817383 3.16113 -1.66699 4.82227 -2.41504c28.9902 -13.0791 57.5957 -15.0176 85.9072 -10.8574z" />
    <glyph glyph-name="o" unicode="&#xf6;" horiz-adv-x="371" 
d="M393.057 280.69c27.7988 5.25 25.5801 -25.1064 2.625 -31.3877c-56.1318 -15.3652 -106.986 -44.7285 -163.166 -60.5479c-4.56055 -31.3662 -13.0635 -62.1396 -26.0947 -91.0176c-18.623 -41.2686 -46.3096 -80.5928 -92.0801 -93.373
c-54.957 -15.3438 -102.223 17.3154 -119.526 69.457c-19.1523 57.707 -13.9072 116.696 -5.0625 175.792c1.77832 11.8779 8.6416 22.2178 18.207 30.4375c-10.2119 54.6465 14.5908 116.312 69.9268 139.854c38.9502 16.5674 84.0156 5.21289 113.128 -24.9414
c34.9609 -36.2109 44.2432 -91.2266 45.4346 -139.598c0.261719 -10.6816 0.0908203 -21.3955 -0.491211 -32.0986c53.1357 17.2881 105.331 47.6504 157.1 57.4238zM161.933 97.5029c13.1221 25.166 21.999 53.3916 27.0732 82.1787
c-30.3408 -4.13867 -61.4561 -3.67969 -90.376 4.84375c-1.34082 -23.6328 -0.956055 -47.2764 3.13477 -70.6953c2.21094 -12.6523 6.63281 -47.2021 22.9326 -50.2676c15.5254 -2.92188 31.7188 23.3604 37.2354 33.9404zM193.146 212.891
c0.758789 10.4678 1.12598 20.9111 0.875 31.1709c-1.0791 44.2803 -8.49219 98.8047 -44.0615 129.69c-42.4268 36.8457 -86.7656 12.3477 -98.793 -37.4766c-3.07129 -12.7168 -3.61621 -25.1934 -2.03027 -37.0605c30.9707 5.7627 61.4883 -5.47461 56.9648 -42.5664
c-1.2334 -10.1211 -2.50977 -20.29 -3.68457 -30.4854c1.59668 -0.817383 3.16113 -1.66699 4.82227 -2.41504c28.9902 -13.0791 57.5957 -15.0176 85.9072 -10.8574z" />
    <glyph glyph-name="o" unicode="&#xf5;" horiz-adv-x="371" 
d="M393.057 280.69c27.7988 5.25 25.5801 -25.1064 2.625 -31.3877c-56.1318 -15.3652 -106.986 -44.7285 -163.166 -60.5479c-4.56055 -31.3662 -13.0635 -62.1396 -26.0947 -91.0176c-18.623 -41.2686 -46.3096 -80.5928 -92.0801 -93.373
c-54.957 -15.3438 -102.223 17.3154 -119.526 69.457c-19.1523 57.707 -13.9072 116.696 -5.0625 175.792c1.77832 11.8779 8.6416 22.2178 18.207 30.4375c-10.2119 54.6465 14.5908 116.312 69.9268 139.854c38.9502 16.5674 84.0156 5.21289 113.128 -24.9414
c34.9609 -36.2109 44.2432 -91.2266 45.4346 -139.598c0.261719 -10.6816 0.0908203 -21.3955 -0.491211 -32.0986c53.1357 17.2881 105.331 47.6504 157.1 57.4238zM161.933 97.5029c13.1221 25.166 21.999 53.3916 27.0732 82.1787
c-30.3408 -4.13867 -61.4561 -3.67969 -90.376 4.84375c-1.34082 -23.6328 -0.956055 -47.2764 3.13477 -70.6953c2.21094 -12.6523 6.63281 -47.2021 22.9326 -50.2676c15.5254 -2.92188 31.7188 23.3604 37.2354 33.9404zM193.146 212.891
c0.758789 10.4678 1.12598 20.9111 0.875 31.1709c-1.0791 44.2803 -8.49219 98.8047 -44.0615 129.69c-42.4268 36.8457 -86.7656 12.3477 -98.793 -37.4766c-3.07129 -12.7168 -3.61621 -25.1934 -2.03027 -37.0605c30.9707 5.7627 61.4883 -5.47461 56.9648 -42.5664
c-1.2334 -10.1211 -2.50977 -20.29 -3.68457 -30.4854c1.59668 -0.817383 3.16113 -1.66699 4.82227 -2.41504c28.9902 -13.0791 57.5957 -15.0176 85.9072 -10.8574z" />
    <glyph glyph-name="o" unicode="&#xf4;" horiz-adv-x="371" 
d="M393.057 280.69c27.7988 5.25 25.5801 -25.1064 2.625 -31.3877c-56.1318 -15.3652 -106.986 -44.7285 -163.166 -60.5479c-4.56055 -31.3662 -13.0635 -62.1396 -26.0947 -91.0176c-18.623 -41.2686 -46.3096 -80.5928 -92.0801 -93.373
c-54.957 -15.3438 -102.223 17.3154 -119.526 69.457c-19.1523 57.707 -13.9072 116.696 -5.0625 175.792c1.77832 11.8779 8.6416 22.2178 18.207 30.4375c-10.2119 54.6465 14.5908 116.312 69.9268 139.854c38.9502 16.5674 84.0156 5.21289 113.128 -24.9414
c34.9609 -36.2109 44.2432 -91.2266 45.4346 -139.598c0.261719 -10.6816 0.0908203 -21.3955 -0.491211 -32.0986c53.1357 17.2881 105.331 47.6504 157.1 57.4238zM161.933 97.5029c13.1221 25.166 21.999 53.3916 27.0732 82.1787
c-30.3408 -4.13867 -61.4561 -3.67969 -90.376 4.84375c-1.34082 -23.6328 -0.956055 -47.2764 3.13477 -70.6953c2.21094 -12.6523 6.63281 -47.2021 22.9326 -50.2676c15.5254 -2.92188 31.7188 23.3604 37.2354 33.9404zM193.146 212.891
c0.758789 10.4678 1.12598 20.9111 0.875 31.1709c-1.0791 44.2803 -8.49219 98.8047 -44.0615 129.69c-42.4268 36.8457 -86.7656 12.3477 -98.793 -37.4766c-3.07129 -12.7168 -3.61621 -25.1934 -2.03027 -37.0605c30.9707 5.7627 61.4883 -5.47461 56.9648 -42.5664
c-1.2334 -10.1211 -2.50977 -20.29 -3.68457 -30.4854c1.59668 -0.817383 3.16113 -1.66699 4.82227 -2.41504c28.9902 -13.0791 57.5957 -15.0176 85.9072 -10.8574z" />
    <glyph glyph-name="o" unicode="&#xf3;" horiz-adv-x="371" 
d="M393.057 280.69c27.7988 5.25 25.5801 -25.1064 2.625 -31.3877c-56.1318 -15.3652 -106.986 -44.7285 -163.166 -60.5479c-4.56055 -31.3662 -13.0635 -62.1396 -26.0947 -91.0176c-18.623 -41.2686 -46.3096 -80.5928 -92.0801 -93.373
c-54.957 -15.3438 -102.223 17.3154 -119.526 69.457c-19.1523 57.707 -13.9072 116.696 -5.0625 175.792c1.77832 11.8779 8.6416 22.2178 18.207 30.4375c-10.2119 54.6465 14.5908 116.312 69.9268 139.854c38.9502 16.5674 84.0156 5.21289 113.128 -24.9414
c34.9609 -36.2109 44.2432 -91.2266 45.4346 -139.598c0.261719 -10.6816 0.0908203 -21.3955 -0.491211 -32.0986c53.1357 17.2881 105.331 47.6504 157.1 57.4238zM161.933 97.5029c13.1221 25.166 21.999 53.3916 27.0732 82.1787
c-30.3408 -4.13867 -61.4561 -3.67969 -90.376 4.84375c-1.34082 -23.6328 -0.956055 -47.2764 3.13477 -70.6953c2.21094 -12.6523 6.63281 -47.2021 22.9326 -50.2676c15.5254 -2.92188 31.7188 23.3604 37.2354 33.9404zM193.146 212.891
c0.758789 10.4678 1.12598 20.9111 0.875 31.1709c-1.0791 44.2803 -8.49219 98.8047 -44.0615 129.69c-42.4268 36.8457 -86.7656 12.3477 -98.793 -37.4766c-3.07129 -12.7168 -3.61621 -25.1934 -2.03027 -37.0605c30.9707 5.7627 61.4883 -5.47461 56.9648 -42.5664
c-1.2334 -10.1211 -2.50977 -20.29 -3.68457 -30.4854c1.59668 -0.817383 3.16113 -1.66699 4.82227 -2.41504c28.9902 -13.0791 57.5957 -15.0176 85.9072 -10.8574z" />
    <glyph glyph-name="p" unicode="p" horiz-adv-x="517" 
d="M533.161 276.497c24.2949 13.8164 37.5605 -14.9102 13.9014 -28.4863c-32.3701 -18.5811 -67.7744 -31.9434 -103.616 -44.542c1.05762 -61.8994 -10.5264 -125.278 -50.3477 -174.462c-37.6367 -46.4912 -116.151 -84.9443 -173.869 -51.1055
c-48.6113 28.498 -43.1748 97.7627 -11.8301 136.014c33.9463 41.4336 87.8779 66.9141 137.691 86.4131c2.49902 29.2676 2.30176 58.8398 -1.5918 87.4717c-2.90039 21.3311 -6.09961 59.1602 -27.5967 70.7178c-23.7021 12.7432 -44.8887 -5.29785 -59.0361 -23.4297
c-32.4883 -41.6367 -47.2178 -98.0352 -60.3613 -148.266c-12.9678 -49.5732 -21.9404 -100.124 -28.627 -150.898c-13.6934 -104.007 -17.4209 -209.001 -27.5469 -313.365c-0.101562 -1.06836 -0.416992 -2.09375 -0.844727 -3.09766
c0.336914 -8.71094 0.705078 -17.4375 1.22852 -26.1807c1.5332 -25.5664 -32.9844 -40.4404 -53.792 -32.7119c-28.627 10.6338 -38.123 46.9453 -46.0752 73.5635c-8.72656 29.2031 -14.7988 58.6045 -19.707 88.668c-10.3398 63.3574 -15.8193 127.244 -19.627 191.296
c-3.96777 66.7705 -5.18555 133.515 -3.7168 200.387c1.45312 66.0068 3.30078 132.591 16.0869 197.529c8.13965 41.3486 109.145 76.6885 110.758 18.207c1.73047 -62.9414 -4.26758 -125.834 -5.87012 -188.743c-1.57031 -61.75 -1.46875 -123.649 0.149414 -185.399
c0.544922 -20.8398 1.39453 -41.6738 2.36133 -62.5078c6.91602 64.2764 16.999 128.077 33.1016 190.703c22.2871 86.6865 87.6738 277.085 209.556 194.004c47.832 -32.6055 71.0322 -86.5684 77.5371 -142.796c31.4141 11.627 62.3584 24.3379 91.6846 41.0176z
M336.229 140.164c1.73047 8.23047 3.19922 16.583 4.54004 24.9844c-26.9873 -11.9902 -52.7188 -26.1484 -75.9248 -44.6543c-16.8291 -13.4209 -50.3584 -53.3008 -22.4531 -74.0547c9.35742 -6.9541 29.2197 -4.58789 39.2871 -0.395508
c35.0625 14.6123 47.5654 60.9004 54.5508 94.1201z" />
    <glyph glyph-name="q" unicode="q" horiz-adv-x="449" 
d="M445.429 -29.0273c13.3516 -66.5088 10.1289 -166.285 -51.7871 -208.942c-27.7236 -19.1035 -63.4268 -27.3711 -95.6475 -16.1504c-35.7988 12.4658 -58.0381 46.4541 -72.7256 79.5566c-36.1621 81.5107 -44.082 169.697 -41.9668 257.874
c0.266602 11.1836 0.699219 22.3564 1.2334 33.5244c-4.76367 -13.4531 -9.87988 -26.7627 -15.6104 -39.7832c-15.584 -35.4414 -43.6768 -69.5635 -85.6338 -69.8574c-46.0264 -0.326172 -85.666 11.5146 -100.727 59.7744
c-26.5166 84.9668 1.45312 192.578 58.8506 258.985c31.5908 36.5469 79.3271 64.8525 128.975 54.6094c15.3389 -3.16211 29.4648 -8.3584 42.3789 -15.4131c16.7002 38.0957 100.188 71.7324 109.08 13.7207c7.14551 -46.625 -3.56836 -97.208 -8.375 -143.764
c-3.29492 -31.9111 -6.78809 -63.8379 -9.28223 -95.835c12.791 13.1436 24.9736 26.9336 36.6328 41.3535c25.6357 31.6973 47.5811 67.2988 75.8867 96.6514c9.7207 10.0781 44.5801 10.9482 31.5381 -9.41602c-40.2539 -62.834 -88.5938 -125.583 -145.591 -175.45
c11.0557 0.549805 22.127 0.859375 33.2256 -1.26074c18.1211 -3.46094 35.3027 -10.6709 50.5293 -21.0322c33.8174 -23.0078 51.1592 -60.0029 59.0156 -99.1455zM189.374 276.064c3.98926 13.9443 7.74512 28.4189 11.9375 42.7803
c-16.4385 11.8516 -35.6123 18.2178 -52.7939 5.73145c-22.6182 -16.4385 -40.9053 -40.1943 -53.6699 -64.9062c-25.7266 -49.8135 -33.7588 -117.925 -19.835 -172.358c2.37695 -9.28809 8.07031 -33.6953 15.6328 -39.9443
c14.543 -12.0225 29.2783 17.042 34.9551 28.4609c15.5254 31.2168 25.2666 66.0811 35.2061 99.3916c9.9873 33.4814 18.9541 67.251 28.5674 100.845zM381.525 -203.066c26.5918 31.8467 27.5273 87.7324 25.0547 126.73
c-2.45117 38.6943 -11.4023 81.2119 -41.124 108.552c-15.3818 14.1475 -35.2549 23.7393 -56.1104 26.0625c-3.07129 0.341797 -6.13672 0.49707 -9.19727 0.572266c-1.79492 -70.5303 1.3291 -145.045 20.1553 -211.201
c6.87891 -24.1826 30.2344 -87.8184 61.2217 -50.7158z" />
    </font>
</defs>
</svg>
